MLW Fusion 129 Full Show Online 1080p

MLW Fusion 129 Full Show Online 1080p DX-TV

MLW Fusion 129

 MLW Fusion 129

 

 

 

Download Links with High Speed


 

Dopapk

 

 

Show Links

 

http://shrt10.com/YsRsR

 

[collapse]

 

 

Nitroflare

 

 

Show Links

 

http://shrt10.com/KI5W7d

 

[collapse]

 

 

Rapidgator

 

 

Show Links

 

http://shrt10.com/FOZ2nXM

 

[collapse]

 

 

Uploaded

 

 

Show Links

 

http://shrt10.com/RVyXi

 

[collapse]

 

 

Watch online

 

Server 1

 

 

 

 

watch now

 

 

 

 

Server-2

 

 

 

 

MLW Fusion 129

 

 

 

|Server-3

 

 

 

 

watch now

 

 

Uploaded By Site DX-TV.com

 

 

Show Info This Show

 

 

Complete name : MLW Fusion 129 (1080p_30fps_H264-128kbit_AAC).mp4
Format : MPEG-4
Format profile : Base Media
Codec ID : isom
File size : 1.80 GiB
Duration : 1 h 2 min
Overall bit rate : 4 146 kb/s

MLW Fusion 129

Video
ID : 1
Format : AVC
Duration : 1 h 2 min
Bit rate : 4 011 kb/s
Width : 1 920 pixels
Height : 1 080 pixels
Display aspect ratio : 16:9
Frame rate mode : Constant
Frame rate : 29.970 (30000/1001) FPS
Color space : YUV
Chroma subsampling : 4:2:0
Bit depth : 8 bits
Scan type : Progressive
Bits/(Pixel*Frame) : 0.065
Stream size : 1.74 GiB (97%)
Color range : Limited
Color primaries : BT.709
Transfer characteristics : BT.709
Matrix coefficients : BT.709
Codec configuration box : avcC

Audio
ID : 2
Format : AAC LC
Codec ID : mp4a-40-2
Duration : 1 h 2 min
Bit rate mode : Constant
Bit rate : 128 kb/s
Channel(s) : 2 channels
Channel layout : L R
Sampling rate : 44.1 kHz
Frame rate : 43.066 FPS (1024 SPF)
Compression mode : Lossy
Stream size : 56.9 MiB (3%)
Alternate group : 1

MLW Fusion 129

Audio
ID : 2
Format : AAC LC
Codec ID : mp4a-40-2
Duration : 1 h 2 min
Bit rate mode : Constant
Bit rate : 128 kb/s
Channel(s) : 2 channels
Channel layout : L R
Sampling rate : 44.1 kHz
Frame rate : 43.066 FPS (1024 SPF)
Compression mode : Lossy
Stream size : 56.9 MiB (3%)
Alternate group : 1

MLW Fusion

Audio
ID : 2
Format : AAC LC
Codec ID : mp4a-40-2
Duration : 1 h 2 min
Bit rate mode : Constant
Bit rate : 128 kb/s
Channel(s) : 2 channels
Channel layout : L R
Sampling rate : 44.1 kHz
Frame rate : 43.066 FPS (1024 SPF)
Compression mode : Lossy
Stream size : 56.9 MiB (3%)
Alternate group : 1

MLW Fusion

Audio
ID : 2
Format : AAC LC
Codec ID : mp4a-40-2
Duration : 1 h 2 min
Bit rate mode : Constant
Bit rate : 128 kb/s
Channel(s) : 2 channels
Channel layout : L R
Sampling rate : 44.1 kHz
Frame rate : 43.066 FPS (1024 SPF)
Compression mode : Lossy
Stream size : 56.9 MiB (3%)
Alternate group : 1

MLW Fusion

Audio
ID : 2
Format : AAC LC
Codec ID : mp4a-40-2
Duration : 1 h 2 min
Bit rate mode : Constant
Bit rate : 128 kb/s
Channel(s) : 2 channels
Channel layout : L R
Sampling rate : 44.1 kHz
Frame rate : 43.066 FPS (1024 SPF)
Compression mode : Lossy
Stream size : 56.9 MiB (3%)
Alternate group : 1

 

Audio
ID : 2
Format : AAC LC
Codec ID : mp4a-40-2
Duration : 1 h 2 min
Bit rate mode : Constant
Bit rate : 128 kb/s
Channel(s) : 2 channels
Channel layout : L R
Sampling rate : 44.1 kHz
Frame rate : 43.066 FPS (1024 SPF)
Compression mode : Lossy
Stream size : 56.9 MiB (3%)
Alternate group : 1

MLW Fusion

[collapse]

 

 

https://dx-tv.com/