MLW Countdown To Kings Of Colosseum 720p DX-TV

MLW Countdown To Kings Of Colosseum 720p DX-TV

MLW Countdown To Kings Of Colosseum

 WWE RAW

 

Download Links with premium High Speed   

 

 

dropapk.to

http://shrt10.com/W999aGaYr

 

 

nitroflare.com

http://shrt10.com/HnHxA

 

 

rapidgator.net

http://shrt10.com/UIliVW

 

 

uploaded.net

http://shrt10.com/83bJw

 

 

uploadgig.com

http://shrt10.com/B4I4H

 

Watch MLW Countdown To Kings Of Colosseum online

 

Server 1

 

 

 

 

MLW Kings Of Colosseum

 

 

 

 

Server-2

 

 

 

 

watch now

 

 

Uploaded By Site DX-TV.com

 

 

Complete name : MLW.Countdown.To.Kings.Of.Colosseum.720p.HDTV.x264-NWCHD.mp4
Format : MPEG-4
Format profile : Base Media
Codec ID : mp42
File size : 1.60 GiB
Duration : 49 min 3 s
Overall bit rate mode : Variable
Overall bit rate : 4 677 kb/s

MLW Countdown To Kings 

Video
ID : 1
Format : AVC
Codec ID : avc1
Codec ID/Info : Advanced Video
Duration : 49 min 3 s
Bit rate : 4 500 kb/s
Width : 1 280 pixels
Height : 720 pixels
Display aspect ratio : 16:9
Frame rate mode : Constant
Frame rate : 29.970 (30000/1001) FPS
Color space : YUV
Chroma subsampling : 4:2:0
Bit depth : 8 bits
Scan type : Progressive
Bits/(Pixel*Frame) : 0.163
Stream size : 1.53 GiB (96%)
Color range : Limited
Color primaries : BT.709
Transfer characteristics : BT.709
Matrix coefficients : BT.709
Codec configuration box : avc

MLW Countdown To 

Audio
ID : 2
Format : AAC LC
Format/Info : Advanced Audio Codec
Codec ID : mp4a-40-2
Duration : 49 min 3 s
Bit rate mode : Variable
Bit rate : 192 kb/s
Channel(s) : 2 channels
Channel layout : L R
Sampling rate : 48.0 kHz
Frame rate : 46.875 FPS (1024 SPF)
Compression mode : Lossy
Stream size : 67.5 MiB (4%)
Title : Stereo / Stereo
Language : English
Default : Yes
Alternate group : 1

MLW Countdown To 

Audio
ID : 2
Format : AAC LC
Format/Info : Advanced Audio Codec
Codec ID : mp4a-40-2
Duration : 49 min 3 s
Bit rate mode : Variable
Bit rate : 192 kb/s
Channel(s) : 2 channels
Channel layout : L R
Sampling rate : 48.0 kHz
Frame rate : 46.875 FPS (1024 SPF)
Compression mode : Lossy
Stream size : 67.5 MiB (4%)
Title : Stereo / Stereo
Language : English
Default : Yes
Alternate group : 1

 

 

https://dx-tv.com/

5 thoughts on “MLW Countdown To Kings Of Colosseum 720p DX-TV

  1. 1 pop up i get. But a lot?!?!? Plus I couldnt even skip. Nothing counted down

    I get it you need those to make the site free, but wow there is way to many and my antivirus and anti malware just go insane now

    Im not going to win this fight, I just wanted to point out what I saw.

    Good luck with the site I just cant go here. It was cool in the beginning but now it ends up doing too much damage to my computer
    Poe

Leave a Reply

Your email address will not be published. Required fields are marked *

This site uses Akismet to reduce spam. Learn how your comment data is processed.