MLW Battle Riot III 2021 Online Free Replay

MLW Battle Riot III 2021 Online Free Replay DX-TV

MLW Battle Riot III

 MLW Battle Riot III

 

 

 

Download Links with premium High Speed


Dopapk

 

 

Show Links

 

http://shrt10.com/VlSU4

 

[collapse]

 

 

Nitroflare

 

 

Show Links

 

http://shrt10.com/Xtuv4Lw

 

[collapse]

 

 

Rapidgator

 

 

Show Links

 

http://shrt10.com/5zQLPme3

 

[collapse]

 

 

Uploaded

 

 

Show Links

 

http://shrt10.com/vxvJ1fCvS

 

[collapse]

 

 

Watch online

 

Server 1

 

 

 

 

MLW Battle Riot III

 

 

 

 

Server-2

 

 

 

 

watch now

 

 

 

|Server-3

 

 

 

 

watch now

 

 

Uploaded By Site DX-TV.com

 

 

Show Info This Show

MLW Battle Riot III

 

Complete name : MLW Battle Riot III ( 720 X 1280 ).mp4
Format : MPEG-4
Format profile : Base Media
Codec ID : mp42 (isom/mp42)
File size : 1.34 GiB
Duration : 1 h 25 min
Overall bit rate mode : Variable
Overall bit rate : 2 250 kb/s

Video
ID : 1
Format : AVC
Format/Info : Advanced Video
Duration : 1 h 25 min
Bit rate : 2 119 kb/s
Width : 1 280 pixels
Height : 720 pixels
Display aspect ratio : 16:9
Frame rate mode : Constant
Frame rate : 29.970 (30000/1001) FPS
Color space : YUV
Chroma subsampling : 4:2:0
Bit depth : 8 bits
Scan type : Progressive
Bits/(Pixel*Frame) : 0.077
Stream size : 1.27 GiB (94%)
Color range : Limited
Color primaries : BT.709
Transfer characteristics : BT.709
Matrix coefficients : BT.709
Codec configuration box : avcC

MLW Battle Riot III

Audio
ID : 2
Format : AAC LC
Format/Info : Advanced Audio
Codec ID : mp4a-40-2
Duration : 1 h 25 min
Bit rate mode : Variable
Bit rate : 128 kb/s
Channel(s) : 2 channels
Channel layout : L R
Sampling rate : 44.1 kHz
Frame rate : 43.066 FPS (1024 SPF)
Compression mode : Lossy
Stream size : 78.3 MiB (6%)

MLW Battle Riot III

Battle Riot is similar to a Royal Rumble style battle royal with wrestlers entering at different times. In Battle Riot, 40 wrestlers will take part entering the ring in intervals of 1 minute. Eliminations can occur by throwing a wrestler over the top rope but also by pin and submission.

The winner of the match earns the right to challenge the MLW World Champion at a time and place of their choosing. Tom Lawlor won the first Battle Riot in 2018. LA Park won the second Battle Riot in 2019. The event did not take place last year due to the pandemic.

MLW Battle Riot III

Battle Riot III Entrants

The entrants for this year’s Battle Riot are below:

  1. Tom Lawlor
  2. Alexander Hammerstone
  3. King Muertes
  4. Mads Krugger
  5. Richard Holliday
  6. TJP
  7. Myron Reed
  8. Marshall Von Erich
  9. Ross Von Erich
  10. Davey Richards
  11. Josef Samael
  12. Ikuro Kwon
  13. Simon Gotch
  14. Calvin Tankman
  15. Savio Vega
  16. King Mo
  17. EJ Nduka
  18. Gino Medina
  19. Lee Moriarty
  20. Shawn Daivari
  21. Bu Ku Dao
  22. Alex Kane
  23. Aramis
  24. Gringo Loco
  25. Zenshi
  26. Kit Osbourne
  27. MLW Battle Riot III

The 14 remaining spots leave plenty of room for surprises.

Richard Holliday vs King Muertes – Caribbean Championship

Azteca Underground’s Cesar Duran (the former Dario Cueto) has arranged for his King Muertes to receive a shot at the Caribbean Championship at Battle Riot. He’ll take on Richard Holliday under Caribbean rules, meaning anything goes. Duran is scheduled to be part of the tapings and will be live in Philadelphia to lead his mysterious faction. Muertes represents a significant threat to Holliday’s title.

MLW Battle Riot III

Davey Richards vs TJP

Davey Richards is returning to the ring with MLW. He’ll take on TJP at Battle Riot III in a match that will have technical wrestling fans excited. TJP will be looking to deal a blow to Richard’s return while Richards will be looking to show the wrestling world he hasn’t lost a step.

MLW 2021 Draft Concludes

MLW has also announced that its 2021 Draft will conclude at Battle Riot. This could possibly mean many surprise new additions to the roster will be unveiled on the show.

MLW Battle Riot III

Bunkhouse Brawl Pits The Von Erichs vs Team Filthy

This match was announced late last month, but no longer appears on MLW.com. It is not currently clear it is still taking place.

There is perhaps no bigger rivalry in MLW than the Von Erichs vs Tom Lawlor and his Team Filthy. That rivalry will continue at Battle Riot III when the Von Erichs take on Team Filthy in a Bunkhouse Brawl. Team Filthy cost the Von Erichs the tag belts earlier this year while the Von Erichs ruined Lawlor’s “Filthy Island” festival. This will be a brutal grudge match between two rival factions.

MLW Battle Riot III

 

Complete name : MLW Battle Riot III ( 720 X 1280 ).mp4
Format : MPEG-4
Format profile : Base Media
Codec ID : mp42 (isom/mp42)
File size : 1.34 GiB
Duration : 1 h 25 min
Overall bit rate mode : Variable
Overall bit rate : 2 250 kb/s

Video
ID : 1
Format : AVC
Format/Info : Advanced Video
Duration : 1 h 25 min
Bit rate : 2 119 kb/s
Width : 1 280 pixels
Height : 720 pixels
Display aspect ratio : 16:9
Frame rate mode : Constant
Frame rate : 29.970 (30000/1001) FPS
Color space : YUV
Chroma subsampling : 4:2:0
Bit depth : 8 bits
Scan type : Progressive
Bits/(Pixel*Frame) : 0.077
Stream size : 1.27 GiB (94%)
Color range : Limited
Color primaries : BT.709
Transfer characteristics : BT.709
Matrix coefficients : BT.709
Codec configuration box : avcC

MLW Battle Riot III

Audio
ID : 2
Format : AAC LC
Format/Info : Advanced Audio
Codec ID : mp4a-40-2
Duration : 1 h 25 min
Bit rate mode : Variable
Bit rate : 128 kb/s
Channel(s) : 2 channels
Channel layout : L R
Sampling rate : 44.1 kHz
Frame rate : 43.066 FPS (1024 SPF)
Compression mode : Lossy
Stream size : 78.3 MiB (6%)

MLW Battle Riot III

Battle Riot is similar to a Royal Rumble style battle royal with wrestlers entering at different times. In Battle Riot, 40 wrestlers will take part entering the ring in intervals of 1 minute. Eliminations can occur by throwing a wrestler over the top rope but also by pin and submission.

The winner of the match earns the right to challenge the MLW World Champion at a time and place of their choosing. Tom Lawlor won the first Battle Riot in 2018. LA Park won the second Battle Riot in 2019. The event did not take place last year due to the pandemic.

MLW Battle Riot III

Battle Riot III Entrants

The entrants for this year’s Battle Riot are below:

  1. Tom Lawlor
  2. Alexander Hammerstone
  3. King Muertes
  4. Mads Krugger
  5. Richard Holliday
  6. TJP
  7. Myron Reed
  8. Marshall Von Erich
  9. Ross Von Erich
  10. Davey Richards
  11. Josef Samael
  12. Ikuro Kwon
  13. Simon Gotch
  14. Calvin Tankman
  15. Savio Vega
  16. King Mo
  17. EJ Nduka
  18. Gino Medina
  19. Lee Moriarty
  20. Shawn Daivari
  21. Bu Ku Dao
  22. Alex Kane
  23. Aramis
  24. Gringo Loco
  25. Zenshi
  26. Kit Osbourne
  27. MLW Battle Riot III

The 14 remaining spots leave plenty of room for surprises.

Richard Holliday vs King Muertes – Caribbean Championship

Azteca Underground’s Cesar Duran (the former Dario Cueto) has arranged for his King Muertes to receive a shot at the Caribbean Championship at Battle Riot. He’ll take on Richard Holliday under Caribbean rules, meaning anything goes. Duran is scheduled to be part of the tapings and will be live in Philadelphia to lead his mysterious faction. Muertes represents a significant threat to Holliday’s title.

MLW Battle Riot III

Davey Richards vs TJP

Davey Richards is returning to the ring with MLW. He’ll take on TJP at Battle Riot III in a match that will have technical wrestling fans excited. TJP will be looking to deal a blow to Richard’s return while Richards will be looking to show the wrestling world he hasn’t lost a step.

MLW 2021 Draft Concludes

MLW has also announced that its 2021 Draft will conclude at Battle Riot. This could possibly mean many surprise new additions to the roster will be unveiled on the show.

MLW Battle Riot III

Bunkhouse Brawl Pits The Von Erichs vs Team Filthy

This match was announced late last month, but no longer appears on MLW.com. It is not currently clear it is still taking place.

There is perhaps no bigger rivalry in MLW than the Von Erichs vs Tom Lawlor and his Team Filthy. That rivalry will continue at Battle Riot III when the Von Erichs take on Team Filthy in a Bunkhouse Brawl. Team Filthy cost the Von Erichs the tag belts earlier this year while the Von Erichs ruined Lawlor’s “Filthy Island” festival. This will be a brutal grudge match between two rival factions.

MLW Battle Riot III

 

Complete name : MLW Battle Riot III ( 720 X 1280 ).mp4
Format : MPEG-4
Format profile : Base Media
Codec ID : mp42 (isom/mp42)
File size : 1.34 GiB
Duration : 1 h 25 min
Overall bit rate mode : Variable
Overall bit rate : 2 250 kb/s

Video
ID : 1
Format : AVC
Format/Info : Advanced Video
Duration : 1 h 25 min
Bit rate : 2 119 kb/s
Width : 1 280 pixels
Height : 720 pixels
Display aspect ratio : 16:9
Frame rate mode : Constant
Frame rate : 29.970 (30000/1001) FPS
Color space : YUV
Chroma subsampling : 4:2:0
Bit depth : 8 bits
Scan type : Progressive
Bits/(Pixel*Frame) : 0.077
Stream size : 1.27 GiB (94%)
Color range : Limited
Color primaries : BT.709
Transfer characteristics : BT.709
Matrix coefficients : BT.709
Codec configuration box : avcC

MLW Battle Riot III

Audio
ID : 2
Format : AAC LC
Format/Info : Advanced Audio
Codec ID : mp4a-40-2
Duration : 1 h 25 min
Bit rate mode : Variable
Bit rate : 128 kb/s
Channel(s) : 2 channels
Channel layout : L R
Sampling rate : 44.1 kHz
Frame rate : 43.066 FPS (1024 SPF)
Compression mode : Lossy
Stream size : 78.3 MiB (6%)

MLW Battle Riot III

Battle Riot is similar to a Royal Rumble style battle royal with wrestlers entering at different times. In Battle Riot, 40 wrestlers will take part entering the ring in intervals of 1 minute. Eliminations can occur by throwing a wrestler over the top rope but also by pin and submission.

The winner of the match earns the right to challenge the MLW World Champion at a time and place of their choosing. Tom Lawlor won the first Battle Riot in 2018. LA Park won the second Battle Riot in 2019. The event did not take place last year due to the pandemic.

MLW Battle Riot III

Battle Riot III Entrants

The entrants for this year’s Battle Riot are below:

  1. Tom Lawlor
  2. Alexander Hammerstone
  3. King Muertes
  4. Mads Krugger
  5. Richard Holliday
  6. TJP
  7. Myron Reed
  8. Marshall Von Erich
  9. Ross Von Erich
  10. Davey Richards
  11. Josef Samael
  12. Ikuro Kwon
  13. Simon Gotch
  14. Calvin Tankman
  15. Savio Vega
  16. King Mo
  17. EJ Nduka
  18. Gino Medina
  19. Lee Moriarty
  20. Shawn Daivari
  21. Bu Ku Dao
  22. Alex Kane
  23. Aramis
  24. Gringo Loco
  25. Zenshi
  26. Kit Osbourne
  27. MLW Battle Riot III

The 14 remaining spots leave plenty of room for surprises.

Richard Holliday vs King Muertes – Caribbean Championship

Azteca Underground’s Cesar Duran (the former Dario Cueto) has arranged for his King Muertes to receive a shot at the Caribbean Championship at Battle Riot. He’ll take on Richard Holliday under Caribbean rules, meaning anything goes. Duran is scheduled to be part of the tapings and will be live in Philadelphia to lead his mysterious faction. Muertes represents a significant threat to Holliday’s title.

MLW Battle Riot III

Davey Richards vs TJP

Davey Richards is returning to the ring with MLW. He’ll take on TJP at Battle Riot III in a match that will have technical wrestling fans excited. TJP will be looking to deal a blow to Richard’s return while Richards will be looking to show the wrestling world he hasn’t lost a step.

MLW 2021 Draft Concludes

MLW has also announced that its 2021 Draft will conclude at Battle Riot. This could possibly mean many surprise new additions to the roster will be unveiled on the show.

MLW Battle Riot III

Bunkhouse Brawl Pits The Von Erichs vs Team Filthy

This match was announced late last month, but no longer appears on MLW.com. It is not currently clear it is still taking place.

There is perhaps no bigger rivalry in MLW than the Von Erichs vs Tom Lawlor and his Team Filthy. That rivalry will continue at Battle Riot III when the Von Erichs take on Team Filthy in a Bunkhouse Brawl. Team Filthy cost the Von Erichs the tag belts earlier this year while the Von Erichs ruined Lawlor’s “Filthy Island” festival. This will be a brutal grudge match between two rival factions.

MLW Battle Riot III

 

Complete name : MLW Battle Riot III ( 720 X 1280 ).mp4
Format : MPEG-4
Format profile : Base Media
Codec ID : mp42 (isom/mp42)
File size : 1.34 GiB
Duration : 1 h 25 min
Overall bit rate mode : Variable
Overall bit rate : 2 250 kb/s

Video
ID : 1
Format : AVC
Format/Info : Advanced Video
Duration : 1 h 25 min
Bit rate : 2 119 kb/s
Width : 1 280 pixels
Height : 720 pixels
Display aspect ratio : 16:9
Frame rate mode : Constant
Frame rate : 29.970 (30000/1001) FPS
Color space : YUV
Chroma subsampling : 4:2:0
Bit depth : 8 bits
Scan type : Progressive
Bits/(Pixel*Frame) : 0.077
Stream size : 1.27 GiB (94%)
Color range : Limited
Color primaries : BT.709
Transfer characteristics : BT.709
Matrix coefficients : BT.709
Codec configuration box : avcC

MLW Battle Riot III

Audio
ID : 2
Format : AAC LC
Format/Info : Advanced Audio
Codec ID : mp4a-40-2
Duration : 1 h 25 min
Bit rate mode : Variable
Bit rate : 128 kb/s
Channel(s) : 2 channels
Channel layout : L R
Sampling rate : 44.1 kHz
Frame rate : 43.066 FPS (1024 SPF)
Compression mode : Lossy
Stream size : 78.3 MiB (6%)

MLW Battle Riot III

Battle Riot is similar to a Royal Rumble style battle royal with wrestlers entering at different times. In Battle Riot, 40 wrestlers will take part entering the ring in intervals of 1 minute. Eliminations can occur by throwing a wrestler over the top rope but also by pin and submission.

The winner of the match earns the right to challenge the MLW World Champion at a time and place of their choosing. Tom Lawlor won the first Battle Riot in 2018. LA Park won the second Battle Riot in 2019. The event did not take place last year due to the pandemic.

MLW Battle Riot III

Battle Riot III Entrants

The entrants for this year’s Battle Riot are below:

  1. Tom Lawlor
  2. Alexander Hammerstone
  3. King Muertes
  4. Mads Krugger
  5. Richard Holliday
  6. TJP
  7. Myron Reed
  8. Marshall Von Erich
  9. Ross Von Erich
  10. Davey Richards
  11. Josef Samael
  12. Ikuro Kwon
  13. Simon Gotch
  14. Calvin Tankman
  15. Savio Vega
  16. King Mo
  17. EJ Nduka
  18. Gino Medina
  19. Lee Moriarty
  20. Shawn Daivari
  21. Bu Ku Dao
  22. Alex Kane
  23. Aramis
  24. Gringo Loco
  25. Zenshi
  26. Kit Osbourne
  27. MLW Battle Riot III

The 14 remaining spots leave plenty of room for surprises.

Richard Holliday vs King Muertes – Caribbean Championship

Azteca Underground’s Cesar Duran (the former Dario Cueto) has arranged for his King Muertes to receive a shot at the Caribbean Championship at Battle Riot. He’ll take on Richard Holliday under Caribbean rules, meaning anything goes. Duran is scheduled to be part of the tapings and will be live in Philadelphia to lead his mysterious faction. Muertes represents a significant threat to Holliday’s title.

MLW Battle Riot III

Davey Richards vs TJP

Davey Richards is returning to the ring with MLW. He’ll take on TJP at Battle Riot III in a match that will have technical wrestling fans excited. TJP will be looking to deal a blow to Richard’s return while Richards will be looking to show the wrestling world he hasn’t lost a step.

MLW 2021 Draft Concludes

MLW has also announced that its 2021 Draft will conclude at Battle Riot. This could possibly mean many surprise new additions to the roster will be unveiled on the show.

MLW Battle Riot III

Bunkhouse Brawl Pits The Von Erichs vs Team Filthy

This match was announced late last month, but no longer appears on MLW.com. It is not currently clear it is still taking place.

There is perhaps no bigger rivalry in MLW than the Von Erichs vs Tom Lawlor and his Team Filthy. That rivalry will continue at Battle Riot III when the Von Erichs take on Team Filthy in a Bunkhouse Brawl. Team Filthy cost the Von Erichs the tag belts earlier this year while the Von Erichs ruined Lawlor’s “Filthy Island” festival. This will be a brutal grudge match between two rival factions.

MLW Battle Riot III

 

Complete name : MLW Battle Riot III ( 720 X 1280 ).mp4
Format : MPEG-4
Format profile : Base Media
Codec ID : mp42 (isom/mp42)
File size : 1.34 GiB
Duration : 1 h 25 min
Overall bit rate mode : Variable
Overall bit rate : 2 250 kb/s

Video
ID : 1
Format : AVC
Format/Info : Advanced Video
Duration : 1 h 25 min
Bit rate : 2 119 kb/s
Width : 1 280 pixels
Height : 720 pixels
Display aspect ratio : 16:9
Frame rate mode : Constant
Frame rate : 29.970 (30000/1001) FPS
Color space : YUV
Chroma subsampling : 4:2:0
Bit depth : 8 bits
Scan type : Progressive
Bits/(Pixel*Frame) : 0.077
Stream size : 1.27 GiB (94%)
Color range : Limited
Color primaries : BT.709
Transfer characteristics : BT.709
Matrix coefficients : BT.709
Codec configuration box : avcC

MLW Battle Riot III

Audio
ID : 2
Format : AAC LC
Format/Info : Advanced Audio
Codec ID : mp4a-40-2
Duration : 1 h 25 min
Bit rate mode : Variable
Bit rate : 128 kb/s
Channel(s) : 2 channels
Channel layout : L R
Sampling rate : 44.1 kHz
Frame rate : 43.066 FPS (1024 SPF)
Compression mode : Lossy
Stream size : 78.3 MiB (6%)

MLW Battle Riot III

Battle Riot is similar to a Royal Rumble style battle royal with wrestlers entering at different times. In Battle Riot, 40 wrestlers will take part entering the ring in intervals of 1 minute. Eliminations can occur by throwing a wrestler over the top rope but also by pin and submission.

The winner of the match earns the right to challenge the MLW World Champion at a time and place of their choosing. Tom Lawlor won the first Battle Riot in 2018. LA Park won the second Battle Riot in 2019. The event did not take place last year due to the pandemic.

MLW Battle Riot III

Battle Riot III Entrants

The entrants for this year’s Battle Riot are below:

  1. Tom Lawlor
  2. Alexander Hammerstone
  3. King Muertes
  4. Mads Krugger
  5. Richard Holliday
  6. TJP
  7. Myron Reed
  8. Marshall Von Erich
  9. Ross Von Erich
  10. Davey Richards
  11. Josef Samael
  12. Ikuro Kwon
  13. Simon Gotch
  14. Calvin Tankman
  15. Savio Vega
  16. King Mo
  17. EJ Nduka
  18. Gino Medina
  19. Lee Moriarty
  20. Shawn Daivari
  21. Bu Ku Dao
  22. Alex Kane
  23. Aramis
  24. Gringo Loco
  25. Zenshi
  26. Kit Osbourne
  27. MLW Battle Riot III

The 14 remaining spots leave plenty of room for surprises.

Richard Holliday vs King Muertes – Caribbean Championship

Azteca Underground’s Cesar Duran (the former Dario Cueto) has arranged for his King Muertes to receive a shot at the Caribbean Championship at Battle Riot. He’ll take on Richard Holliday under Caribbean rules, meaning anything goes. Duran is scheduled to be part of the tapings and will be live in Philadelphia to lead his mysterious faction. Muertes represents a significant threat to Holliday’s title.

MLW Battle Riot III

Davey Richards vs TJP

Davey Richards is returning to the ring with MLW. He’ll take on TJP at Battle Riot III in a match that will have technical wrestling fans excited. TJP will be looking to deal a blow to Richard’s return while Richards will be looking to show the wrestling world he hasn’t lost a step.

MLW 2021 Draft Concludes

MLW has also announced that its 2021 Draft will conclude at Battle Riot. This could possibly mean many surprise new additions to the roster will be unveiled on the show.

MLW Battle Riot III

Bunkhouse Brawl Pits The Von Erichs vs Team Filthy

This match was announced late last month, but no longer appears on MLW.com. It is not currently clear it is still taking place.

There is perhaps no bigger rivalry in MLW than the Von Erichs vs Tom Lawlor and his Team Filthy. That rivalry will continue at Battle Riot III when the Von Erichs take on Team Filthy in a Bunkhouse Brawl. Team Filthy cost the Von Erichs the tag belts earlier this year while the Von Erichs ruined Lawlor’s “Filthy Island” festival. This will be a brutal grudge match between two rival factions.

MLW Battle Riot III

 

 

[collapse]

 

 

https://dx-tv.com/

Leave a Reply

Your email address will not be published. Required fields are marked *

This site uses Akismet to reduce spam. Learn how your comment data is processed.