Marvelous 5th Anniversary 2021 07 19 Online Free Replay DX-TV

Contents show

Marvelous 5th Anniversary

 Marvelous 5th Anniversary

 

 

 

Download Links with premium High Speed


Dopapk

 

 

Show Links

 

http://shrt10.com/NtySy

 

[collapse]

 

 

Nitroflare

 

 

Show Links

 

http://shrt10.com/FVDbnxFzE

 

[collapse]

 

 

Rapidgator

 

 

Show Links

 

http://shrt10.com/rJXLK1

 

[collapse]

 

 

Uploaded

 

 

Show Links

 

http://shrt10.com/Q0TameG1L

 

[collapse]

 

 

Watch online

 

Server 1

 

 

 

 

Marvelous 5th Anniversary

 

 

 

 

Server-2

 

 

 

 

watch now

 

 

 

|Server-3

 

 

 

 

watch now

 

 

Uploaded By Site DX-TV.com

 

 

Show Info This Show

Marvelous 5th Anniversary

 

Complete name : 2021.07.19 Marvelous 5th Anniversary.mp4
Format : MPEG-4
Format profile : Base Media
Codec ID : isom
File size : 2.75 GiB
Duration : 2 h 41 min
Overall bit rate : 2 445 kb/s

Video
ID : 1
Format : AVC
Format/Info : Advanced Video
Duration : 2 h 41 min
Bit rate : 2 228 kb/s
Width : 1 280 pixels
Height : 720 pixels
Display aspect ratio : 16:9
Frame rate mode : Variable
Frame rate : 30.000 FPS
Minimum frame rate : 29.960 FPS
Maximum frame rate : 30.010 FPS
Color space : YUV
Chroma subsampling : 4:2:0
Bit depth : 8 bits
Scan type : Progressive
Bits/(Pixel*Frame) : 0.081
Stream size : 2.51 GiB (91%)
Codec configuration box : avc

Marvelous 5th Anniversary

Audio
ID : 2
Format : AAC LC
Format/Info : Advanced Audio
Codec ID : mp4a-40-2
Duration : 2 h 41 min
Bit rate mode : Constant
Bit rate : 210 kb/s
Channel(s) : 2 channels
Channel layout : L R
Sampling rate : 44.1 kHz
Frame rate : 43.066 FPS (1024 SPF)
Compression mode : Lossy
Stream size : 242 MiB (9%)
Default : Yes
Alternate group : 1

Marvelous 5th Anniversary

Name of the event: Marvelous 5th Anniversary
Date: 19.07.2021
Promotion: Marvelous That’s Women Pro Wrestling
Type: Event
Location: Tokyo, Japan
Arena: Korakuen Hall

:::: Not enough votes for total rating. ::::
Singles Match
Kaoru Ito defeats Ai Houzan (6:54)
:::: Not enough votes for total rating. ::::
Singles Match
Hartley Jackson defeats Leo Isaka (8:29)
:::: Not enough votes for total rating. ::::
Six Man Tag Team Hardcore Match
ASUKA, Chikayo Nagashima & KAORU defeat Mikoto Shindo, Tomoko Watanabe & Yuki Miyazaki (16:44)
:::: Matchguide Rating: 6.17 based on 5 votes. ::::
Singles Match
Mayu Iwatani defeats Rin Kadokura (7:17)
:::: Matchguide Rating: 7.80 based on 9 votes. ::::
Tag Team Match
Mio Momono & Starlight Kid defeat AZM & Mei Hoshizuki (11:12)
:::: Not enough votes for total rating. ::::
Singles Match
Takumi Iroha defeats Hibiki (26:30)

Marvelous 5th Anniversary

Complete name : 2021.07.19 Marvelous 5th Anniversary.mp4
Format : MPEG-4
Format profile : Base Media
Codec ID : isom
File size : 2.75 GiB
Duration : 2 h 41 min
Overall bit rate : 2 445 kb/s

Video
ID : 1
Format : AVC
Format/Info : Advanced Video
Duration : 2 h 41 min
Bit rate : 2 228 kb/s
Width : 1 280 pixels
Height : 720 pixels
Display aspect ratio : 16:9
Frame rate mode : Variable
Frame rate : 30.000 FPS
Minimum frame rate : 29.960 FPS
Maximum frame rate : 30.010 FPS
Color space : YUV
Chroma subsampling : 4:2:0
Bit depth : 8 bits
Scan type : Progressive
Bits/(Pixel*Frame) : 0.081
Stream size : 2.51 GiB (91%)
Codec configuration box : avc

Marvelous 5th Anniversary

Audio
ID : 2
Format : AAC LC
Format/Info : Advanced Audio
Codec ID : mp4a-40-2
Duration : 2 h 41 min
Bit rate mode : Constant
Bit rate : 210 kb/s
Channel(s) : 2 channels
Channel layout : L R
Sampling rate : 44.1 kHz
Frame rate : 43.066 FPS (1024 SPF)
Compression mode : Lossy
Stream size : 242 MiB (9%)
Default : Yes
Alternate group : 1

Marvelous 5th Anniversary

Name of the event: Marvelous 5th Anniversary
Date: 19.07.2021
Promotion: Marvelous That’s Women Pro Wrestling
Type: Event
Location: Tokyo, Japan
Arena: Korakuen Hall

:::: Not enough votes for total rating. ::::
Singles Match
Kaoru Ito defeats Ai Houzan (6:54)
:::: Not enough votes for total rating. ::::
Singles Match
Hartley Jackson defeats Leo Isaka (8:29)
:::: Not enough votes for total rating. ::::
Six Man Tag Team Hardcore Match
ASUKA, Chikayo Nagashima & KAORU defeat Mikoto Shindo, Tomoko Watanabe & Yuki Miyazaki (16:44)
:::: Matchguide Rating: 6.17 based on 5 votes. ::::
Singles Match
Mayu Iwatani defeats Rin Kadokura (7:17)
:::: Matchguide Rating: 7.80 based on 9 votes. ::::
Tag Team Match
Mio Momono & Starlight Kid defeat AZM & Mei Hoshizuki (11:12)
:::: Not enough votes for total rating. ::::
Singles Match
Takumi Iroha defeats Hibiki (26:30)

Marvelous 5th Anniversary

Complete name : 2021.07.19 Marvelous 5th Anniversary.mp4
Format : MPEG-4
Format profile : Base Media
Codec ID : isom
File size : 2.75 GiB
Duration : 2 h 41 min
Overall bit rate : 2 445 kb/s

Video
ID : 1
Format : AVC
Format/Info : Advanced Video
Duration : 2 h 41 min
Bit rate : 2 228 kb/s
Width : 1 280 pixels
Height : 720 pixels
Display aspect ratio : 16:9
Frame rate mode : Variable
Frame rate : 30.000 FPS
Minimum frame rate : 29.960 FPS
Maximum frame rate : 30.010 FPS
Color space : YUV
Chroma subsampling : 4:2:0
Bit depth : 8 bits
Scan type : Progressive
Bits/(Pixel*Frame) : 0.081
Stream size : 2.51 GiB (91%)
Codec configuration box : avc

Marvelous 5th Anniversary

Audio
ID : 2
Format : AAC LC
Format/Info : Advanced Audio
Codec ID : mp4a-40-2
Duration : 2 h 41 min
Bit rate mode : Constant
Bit rate : 210 kb/s
Channel(s) : 2 channels
Channel layout : L R
Sampling rate : 44.1 kHz
Frame rate : 43.066 FPS (1024 SPF)
Compression mode : Lossy
Stream size : 242 MiB (9%)
Default : Yes
Alternate group : 1

Marvelous 5th Anniversary

Name of the event: Marvelous 5th Anniversary
Date: 19.07.2021
Promotion: Marvelous That’s Women Pro Wrestling
Type: Event
Location: Tokyo, Japan
Arena: Korakuen Hall

:::: Not enough votes for total rating. ::::
Singles Match
Kaoru Ito defeats Ai Houzan (6:54)
:::: Not enough votes for total rating. ::::
Singles Match
Hartley Jackson defeats Leo Isaka (8:29)
:::: Not enough votes for total rating. ::::
Six Man Tag Team Hardcore Match
ASUKA, Chikayo Nagashima & KAORU defeat Mikoto Shindo, Tomoko Watanabe & Yuki Miyazaki (16:44)
:::: Matchguide Rating: 6.17 based on 5 votes. ::::
Singles Match
Mayu Iwatani defeats Rin Kadokura (7:17)
:::: Matchguide Rating: 7.80 based on 9 votes. ::::
Tag Team Match
Mio Momono & Starlight Kid defeat AZM & Mei Hoshizuki (11:12)
:::: Not enough votes for total rating. ::::
Singles Match
Takumi Iroha defeats Hibiki (26:30)

Marvelous 5th Anniversary

Complete name : 2021.07.19 Marvelous 5th Anniversary.mp4
Format : MPEG-4
Format profile : Base Media
Codec ID : isom
File size : 2.75 GiB
Duration : 2 h 41 min
Overall bit rate : 2 445 kb/s

Video
ID : 1
Format : AVC
Format/Info : Advanced Video
Duration : 2 h 41 min
Bit rate : 2 228 kb/s
Width : 1 280 pixels
Height : 720 pixels
Display aspect ratio : 16:9
Frame rate mode : Variable
Frame rate : 30.000 FPS
Minimum frame rate : 29.960 FPS
Maximum frame rate : 30.010 FPS
Color space : YUV
Chroma subsampling : 4:2:0
Bit depth : 8 bits
Scan type : Progressive
Bits/(Pixel*Frame) : 0.081
Stream size : 2.51 GiB (91%)
Codec configuration box : avc

Marvelous 5th Anniversary

Audio
ID : 2
Format : AAC LC
Format/Info : Advanced Audio
Codec ID : mp4a-40-2
Duration : 2 h 41 min
Bit rate mode : Constant
Bit rate : 210 kb/s
Channel(s) : 2 channels
Channel layout : L R
Sampling rate : 44.1 kHz
Frame rate : 43.066 FPS (1024 SPF)
Compression mode : Lossy
Stream size : 242 MiB (9%)
Default : Yes
Alternate group : 1

Marvelous 5th Anniversary

Name of the event: Marvelous 5th Anniversary
Date: 19.07.2021
Promotion: Marvelous That’s Women Pro Wrestling
Type: Event
Location: Tokyo, Japan
Arena: Korakuen Hall

:::: Not enough votes for total rating. ::::
Singles Match
Kaoru Ito defeats Ai Houzan (6:54)
:::: Not enough votes for total rating. ::::
Singles Match
Hartley Jackson defeats Leo Isaka (8:29)
:::: Not enough votes for total rating. ::::
Six Man Tag Team Hardcore Match
ASUKA, Chikayo Nagashima & KAORU defeat Mikoto Shindo, Tomoko Watanabe & Yuki Miyazaki (16:44)
:::: Matchguide Rating: 6.17 based on 5 votes. ::::
Singles Match
Mayu Iwatani defeats Rin Kadokura (7:17)
:::: Matchguide Rating: 7.80 based on 9 votes. ::::
Tag Team Match
Mio Momono & Starlight Kid defeat AZM & Mei Hoshizuki (11:12)
:::: Not enough votes for total rating. ::::
Singles Match
Takumi Iroha defeats Hibiki (26:30)

Marvelous 5th Anniversary

Complete name : 2021.07.19 Marvelous 5th Anniversary.mp4
Format : MPEG-4
Format profile : Base Media
Codec ID : isom
File size : 2.75 GiB
Duration : 2 h 41 min
Overall bit rate : 2 445 kb/s

Video
ID : 1
Format : AVC
Format/Info : Advanced Video
Duration : 2 h 41 min
Bit rate : 2 228 kb/s
Width : 1 280 pixels
Height : 720 pixels
Display aspect ratio : 16:9
Frame rate mode : Variable
Frame rate : 30.000 FPS
Minimum frame rate : 29.960 FPS
Maximum frame rate : 30.010 FPS
Color space : YUV
Chroma subsampling : 4:2:0
Bit depth : 8 bits
Scan type : Progressive
Bits/(Pixel*Frame) : 0.081
Stream size : 2.51 GiB (91%)
Codec configuration box : avc

Marvelous 5th Anniversary

Audio
ID : 2
Format : AAC LC
Format/Info : Advanced Audio
Codec ID : mp4a-40-2
Duration : 2 h 41 min
Bit rate mode : Constant
Bit rate : 210 kb/s
Channel(s) : 2 channels
Channel layout : L R
Sampling rate : 44.1 kHz
Frame rate : 43.066 FPS (1024 SPF)
Compression mode : Lossy
Stream size : 242 MiB (9%)
Default : Yes
Alternate group : 1

Marvelous 5th Anniversary

Name of the event: Marvelous 5th Anniversary
Date: 19.07.2021
Promotion: Marvelous That’s Women Pro Wrestling
Type: Event
Location: Tokyo, Japan
Arena: Korakuen Hall

:::: Not enough votes for total rating. ::::
Singles Match
Kaoru Ito defeats Ai Houzan (6:54)
:::: Not enough votes for total rating. ::::
Singles Match
Hartley Jackson defeats Leo Isaka (8:29)
:::: Not enough votes for total rating. ::::
Six Man Tag Team Hardcore Match
ASUKA, Chikayo Nagashima & KAORU defeat Mikoto Shindo, Tomoko Watanabe & Yuki Miyazaki (16:44)
:::: Matchguide Rating: 6.17 based on 5 votes. ::::
Singles Match
Mayu Iwatani defeats Rin Kadokura (7:17)
:::: Matchguide Rating: 7.80 based on 9 votes. ::::
Tag Team Match
Mio Momono & Starlight Kid defeat AZM & Mei Hoshizuki (11:12)
:::: Not enough votes for total rating. ::::
Singles Match
Takumi Iroha defeats Hibiki (26:30)

Marvelous 5th Anniversary

Complete name : 2021.07.19 Marvelous 5th Anniversary.mp4
Format : MPEG-4
Format profile : Base Media
Codec ID : isom
File size : 2.75 GiB
Duration : 2 h 41 min
Overall bit rate : 2 445 kb/s

Video
ID : 1
Format : AVC
Format/Info : Advanced Video
Duration : 2 h 41 min
Bit rate : 2 228 kb/s
Width : 1 280 pixels
Height : 720 pixels
Display aspect ratio : 16:9
Frame rate mode : Variable
Frame rate : 30.000 FPS
Minimum frame rate : 29.960 FPS
Maximum frame rate : 30.010 FPS
Color space : YUV
Chroma subsampling : 4:2:0
Bit depth : 8 bits
Scan type : Progressive
Bits/(Pixel*Frame) : 0.081
Stream size : 2.51 GiB (91%)
Codec configuration box : avc

Marvelous 5th Anniversary

Audio
ID : 2
Format : AAC LC
Format/Info : Advanced Audio
Codec ID : mp4a-40-2
Duration : 2 h 41 min
Bit rate mode : Constant
Bit rate : 210 kb/s
Channel(s) : 2 channels
Channel layout : L R
Sampling rate : 44.1 kHz
Frame rate : 43.066 FPS (1024 SPF)
Compression mode : Lossy
Stream size : 242 MiB (9%)
Default : Yes
Alternate group : 1

Marvelous 5th Anniversary

Name of the event: Marvelous 5th Anniversary
Date: 19.07.2021
Promotion: Marvelous That’s Women Pro Wrestling
Type: Event
Location: Tokyo, Japan
Arena: Korakuen Hall

:::: Not enough votes for total rating. ::::
Singles Match
Kaoru Ito defeats Ai Houzan (6:54)
:::: Not enough votes for total rating. ::::
Singles Match
Hartley Jackson defeats Leo Isaka (8:29)
:::: Not enough votes for total rating. ::::
Six Man Tag Team Hardcore Match
ASUKA, Chikayo Nagashima & KAORU defeat Mikoto Shindo, Tomoko Watanabe & Yuki Miyazaki (16:44)
:::: Matchguide Rating: 6.17 based on 5 votes. ::::
Singles Match
Mayu Iwatani defeats Rin Kadokura (7:17)
:::: Matchguide Rating: 7.80 based on 9 votes. ::::
Tag Team Match
Mio Momono & Starlight Kid defeat AZM & Mei Hoshizuki (11:12)
:::: Not enough votes for total rating. ::::
Singles Match
Takumi Iroha defeats Hibiki (26:30)

Marvelous 5th Anniversary

Complete name : 2021.07.19 Marvelous 5th Anniversary.mp4
Format : MPEG-4
Format profile : Base Media
Codec ID : isom
File size : 2.75 GiB
Duration : 2 h 41 min
Overall bit rate : 2 445 kb/s

Video
ID : 1
Format : AVC
Format/Info : Advanced Video
Duration : 2 h 41 min
Bit rate : 2 228 kb/s
Width : 1 280 pixels
Height : 720 pixels
Display aspect ratio : 16:9
Frame rate mode : Variable
Frame rate : 30.000 FPS
Minimum frame rate : 29.960 FPS
Maximum frame rate : 30.010 FPS
Color space : YUV
Chroma subsampling : 4:2:0
Bit depth : 8 bits
Scan type : Progressive
Bits/(Pixel*Frame) : 0.081
Stream size : 2.51 GiB (91%)
Codec configuration box : avc

Marvelous 5th Anniversary

Audio
ID : 2
Format : AAC LC
Format/Info : Advanced Audio
Codec ID : mp4a-40-2
Duration : 2 h 41 min
Bit rate mode : Constant
Bit rate : 210 kb/s
Channel(s) : 2 channels
Channel layout : L R
Sampling rate : 44.1 kHz
Frame rate : 43.066 FPS (1024 SPF)
Compression mode : Lossy
Stream size : 242 MiB (9%)
Default : Yes
Alternate group : 1

Marvelous 5th Anniversary

Name of the event: Marvelous 5th Anniversary
Date: 19.07.2021
Promotion: Marvelous That’s Women Pro Wrestling
Type: Event
Location: Tokyo, Japan
Arena: Korakuen Hall

:::: Not enough votes for total rating. ::::
Singles Match
Kaoru Ito defeats Ai Houzan (6:54)
:::: Not enough votes for total rating. ::::
Singles Match
Hartley Jackson defeats Leo Isaka (8:29)
:::: Not enough votes for total rating. ::::
Six Man Tag Team Hardcore Match
ASUKA, Chikayo Nagashima & KAORU defeat Mikoto Shindo, Tomoko Watanabe & Yuki Miyazaki (16:44)
:::: Matchguide Rating: 6.17 based on 5 votes. ::::
Singles Match
Mayu Iwatani defeats Rin Kadokura (7:17)
:::: Matchguide Rating: 7.80 based on 9 votes. ::::
Tag Team Match
Mio Momono & Starlight Kid defeat AZM & Mei Hoshizuki (11:12)
:::: Not enough votes for total rating. ::::
Singles Match
Takumi Iroha defeats Hibiki (26:30)

Marvelous 5th Anniversary

Complete name : 2021.07.19 Marvelous 5th Anniversary.mp4
Format : MPEG-4
Format profile : Base Media
Codec ID : isom
File size : 2.75 GiB
Duration : 2 h 41 min
Overall bit rate : 2 445 kb/s

Video
ID : 1
Format : AVC
Format/Info : Advanced Video
Duration : 2 h 41 min
Bit rate : 2 228 kb/s
Width : 1 280 pixels
Height : 720 pixels
Display aspect ratio : 16:9
Frame rate mode : Variable
Frame rate : 30.000 FPS
Minimum frame rate : 29.960 FPS
Maximum frame rate : 30.010 FPS
Color space : YUV
Chroma subsampling : 4:2:0
Bit depth : 8 bits
Scan type : Progressive
Bits/(Pixel*Frame) : 0.081
Stream size : 2.51 GiB (91%)
Codec configuration box : avc

Marvelous 5th Anniversary

Audio
ID : 2
Format : AAC LC
Format/Info : Advanced Audio
Codec ID : mp4a-40-2
Duration : 2 h 41 min
Bit rate mode : Constant
Bit rate : 210 kb/s
Channel(s) : 2 channels
Channel layout : L R
Sampling rate : 44.1 kHz
Frame rate : 43.066 FPS (1024 SPF)
Compression mode : Lossy
Stream size : 242 MiB (9%)
Default : Yes
Alternate group : 1

Marvelous 5th Anniversary

Name of the event: Marvelous 5th Anniversary
Date: 19.07.2021
Promotion: Marvelous That’s Women Pro Wrestling
Type: Event
Location: Tokyo, Japan
Arena: Korakuen Hall

:::: Not enough votes for total rating. ::::
Singles Match
Kaoru Ito defeats Ai Houzan (6:54)
:::: Not enough votes for total rating. ::::
Singles Match
Hartley Jackson defeats Leo Isaka (8:29)
:::: Not enough votes for total rating. ::::
Six Man Tag Team Hardcore Match
ASUKA, Chikayo Nagashima & KAORU defeat Mikoto Shindo, Tomoko Watanabe & Yuki Miyazaki (16:44)
:::: Matchguide Rating: 6.17 based on 5 votes. ::::
Singles Match
Mayu Iwatani defeats Rin Kadokura (7:17)
:::: Matchguide Rating: 7.80 based on 9 votes. ::::
Tag Team Match
Mio Momono & Starlight Kid defeat AZM & Mei Hoshizuki (11:12)
:::: Not enough votes for total rating. ::::
Singles Match
Takumi Iroha defeats Hibiki (26:30)

Marvelous 5th Anniversary

Complete name : 2021.07.19 Marvelous 5th Anniversary.mp4
Format : MPEG-4
Format profile : Base Media
Codec ID : isom
File size : 2.75 GiB
Duration : 2 h 41 min
Overall bit rate : 2 445 kb/s

Video
ID : 1
Format : AVC
Format/Info : Advanced Video
Duration : 2 h 41 min
Bit rate : 2 228 kb/s
Width : 1 280 pixels
Height : 720 pixels
Display aspect ratio : 16:9
Frame rate mode : Variable
Frame rate : 30.000 FPS
Minimum frame rate : 29.960 FPS
Maximum frame rate : 30.010 FPS
Color space : YUV
Chroma subsampling : 4:2:0
Bit depth : 8 bits
Scan type : Progressive
Bits/(Pixel*Frame) : 0.081
Stream size : 2.51 GiB (91%)
Codec configuration box : avc

Marvelous 5th Anniversary

Audio
ID : 2
Format : AAC LC
Format/Info : Advanced Audio
Codec ID : mp4a-40-2
Duration : 2 h 41 min
Bit rate mode : Constant
Bit rate : 210 kb/s
Channel(s) : 2 channels
Channel layout : L R
Sampling rate : 44.1 kHz
Frame rate : 43.066 FPS (1024 SPF)
Compression mode : Lossy
Stream size : 242 MiB (9%)
Default : Yes
Alternate group : 1

Marvelous 5th Anniversary

Name of the event: Marvelous 5th Anniversary
Date: 19.07.2021
Promotion: Marvelous That’s Women Pro Wrestling
Type: Event
Location: Tokyo, Japan
Arena: Korakuen Hall

:::: Not enough votes for total rating. ::::
Singles Match
Kaoru Ito defeats Ai Houzan (6:54)
:::: Not enough votes for total rating. ::::
Singles Match
Hartley Jackson defeats Leo Isaka (8:29)
:::: Not enough votes for total rating. ::::
Six Man Tag Team Hardcore Match
ASUKA, Chikayo Nagashima & KAORU defeat Mikoto Shindo, Tomoko Watanabe & Yuki Miyazaki (16:44)
:::: Matchguide Rating: 6.17 based on 5 votes. ::::
Singles Match
Mayu Iwatani defeats Rin Kadokura (7:17)
:::: Matchguide Rating: 7.80 based on 9 votes. ::::
Tag Team Match
Mio Momono & Starlight Kid defeat AZM & Mei Hoshizuki (11:12)
:::: Not enough votes for total rating. ::::
Singles Match
Takumi Iroha defeats Hibiki (26:30)

Marvelous 5th Anniversary

Complete name : 2021.07.19 Marvelous 5th Anniversary.mp4
Format : MPEG-4
Format profile : Base Media
Codec ID : isom
File size : 2.75 GiB
Duration : 2 h 41 min
Overall bit rate : 2 445 kb/s

Video
ID : 1
Format : AVC
Format/Info : Advanced Video
Duration : 2 h 41 min
Bit rate : 2 228 kb/s
Width : 1 280 pixels
Height : 720 pixels
Display aspect ratio : 16:9
Frame rate mode : Variable
Frame rate : 30.000 FPS
Minimum frame rate : 29.960 FPS
Maximum frame rate : 30.010 FPS
Color space : YUV
Chroma subsampling : 4:2:0
Bit depth : 8 bits
Scan type : Progressive
Bits/(Pixel*Frame) : 0.081
Stream size : 2.51 GiB (91%)
Codec configuration box : avc

Marvelous 5th Anniversary

Audio
ID : 2
Format : AAC LC
Format/Info : Advanced Audio
Codec ID : mp4a-40-2
Duration : 2 h 41 min
Bit rate mode : Constant
Bit rate : 210 kb/s
Channel(s) : 2 channels
Channel layout : L R
Sampling rate : 44.1 kHz
Frame rate : 43.066 FPS (1024 SPF)
Compression mode : Lossy
Stream size : 242 MiB (9%)
Default : Yes
Alternate group : 1

Marvelous 5th Anniversary

Name of the event: Marvelous 5th Anniversary
Date: 19.07.2021
Promotion: Marvelous That’s Women Pro Wrestling
Type: Event
Location: Tokyo, Japan
Arena: Korakuen Hall

:::: Not enough votes for total rating. ::::
Singles Match
Kaoru Ito defeats Ai Houzan (6:54)
:::: Not enough votes for total rating. ::::
Singles Match
Hartley Jackson defeats Leo Isaka (8:29)
:::: Not enough votes for total rating. ::::
Six Man Tag Team Hardcore Match
ASUKA, Chikayo Nagashima & KAORU defeat Mikoto Shindo, Tomoko Watanabe & Yuki Miyazaki (16:44)
:::: Matchguide Rating: 6.17 based on 5 votes. ::::
Singles Match
Mayu Iwatani defeats Rin Kadokura (7:17)
:::: Matchguide Rating: 7.80 based on 9 votes. ::::
Tag Team Match
Mio Momono & Starlight Kid defeat AZM & Mei Hoshizuki (11:12)
:::: Not enough votes for total rating. ::::
Singles Match
Takumi Iroha defeats Hibiki (26:30)

Marvelous 5th Anniversary

Complete name : 2021.07.19 Marvelous 5th Anniversary.mp4
Format : MPEG-4
Format profile : Base Media
Codec ID : isom
File size : 2.75 GiB
Duration : 2 h 41 min
Overall bit rate : 2 445 kb/s

Video
ID : 1
Format : AVC
Format/Info : Advanced Video
Duration : 2 h 41 min
Bit rate : 2 228 kb/s
Width : 1 280 pixels
Height : 720 pixels
Display aspect ratio : 16:9
Frame rate mode : Variable
Frame rate : 30.000 FPS
Minimum frame rate : 29.960 FPS
Maximum frame rate : 30.010 FPS
Color space : YUV
Chroma subsampling : 4:2:0
Bit depth : 8 bits
Scan type : Progressive
Bits/(Pixel*Frame) : 0.081
Stream size : 2.51 GiB (91%)
Codec configuration box : avc

Marvelous 5th Anniversary

Audio
ID : 2
Format : AAC LC
Format/Info : Advanced Audio
Codec ID : mp4a-40-2
Duration : 2 h 41 min
Bit rate mode : Constant
Bit rate : 210 kb/s
Channel(s) : 2 channels
Channel layout : L R
Sampling rate : 44.1 kHz
Frame rate : 43.066 FPS (1024 SPF)
Compression mode : Lossy
Stream size : 242 MiB (9%)
Default : Yes
Alternate group : 1

Marvelous 5th Anniversary

Name of the event: Marvelous 5th Anniversary
Date: 19.07.2021
Promotion: Marvelous That’s Women Pro Wrestling
Type: Event
Location: Tokyo, Japan
Arena: Korakuen Hall

:::: Not enough votes for total rating. ::::
Singles Match
Kaoru Ito defeats Ai Houzan (6:54)
:::: Not enough votes for total rating. ::::
Singles Match
Hartley Jackson defeats Leo Isaka (8:29)
:::: Not enough votes for total rating. ::::
Six Man Tag Team Hardcore Match
ASUKA, Chikayo Nagashima & KAORU defeat Mikoto Shindo, Tomoko Watanabe & Yuki Miyazaki (16:44)
:::: Matchguide Rating: 6.17 based on 5 votes. ::::
Singles Match
Mayu Iwatani defeats Rin Kadokura (7:17)
:::: Matchguide Rating: 7.80 based on 9 votes. ::::
Tag Team Match
Mio Momono & Starlight Kid defeat AZM & Mei Hoshizuki (11:12)
:::: Not enough votes for total rating. ::::
Singles Match
Takumi Iroha defeats Hibiki (26:30)

Marvelous 5th Anniversary

Complete name : 2021.07.19 Marvelous 5th Anniversary.mp4
Format : MPEG-4
Format profile : Base Media
Codec ID : isom
File size : 2.75 GiB
Duration : 2 h 41 min
Overall bit rate : 2 445 kb/s

Video
ID : 1
Format : AVC
Format/Info : Advanced Video
Duration : 2 h 41 min
Bit rate : 2 228 kb/s
Width : 1 280 pixels
Height : 720 pixels
Display aspect ratio : 16:9
Frame rate mode : Variable
Frame rate : 30.000 FPS
Minimum frame rate : 29.960 FPS
Maximum frame rate : 30.010 FPS
Color space : YUV
Chroma subsampling : 4:2:0
Bit depth : 8 bits
Scan type : Progressive
Bits/(Pixel*Frame) : 0.081
Stream size : 2.51 GiB (91%)
Codec configuration box : avc

Marvelous 5th Anniversary

Audio
ID : 2
Format : AAC LC
Format/Info : Advanced Audio
Codec ID : mp4a-40-2
Duration : 2 h 41 min
Bit rate mode : Constant
Bit rate : 210 kb/s
Channel(s) : 2 channels
Channel layout : L R
Sampling rate : 44.1 kHz
Frame rate : 43.066 FPS (1024 SPF)
Compression mode : Lossy
Stream size : 242 MiB (9%)
Default : Yes
Alternate group : 1

Marvelous 5th Anniversary

Name of the event: Marvelous 5th Anniversary
Date: 19.07.2021
Promotion: Marvelous That’s Women Pro Wrestling
Type: Event
Location: Tokyo, Japan
Arena: Korakuen Hall

:::: Not enough votes for total rating. ::::
Singles Match
Kaoru Ito defeats Ai Houzan (6:54)
:::: Not enough votes for total rating. ::::
Singles Match
Hartley Jackson defeats Leo Isaka (8:29)
:::: Not enough votes for total rating. ::::
Six Man Tag Team Hardcore Match
ASUKA, Chikayo Nagashima & KAORU defeat Mikoto Shindo, Tomoko Watanabe & Yuki Miyazaki (16:44)
:::: Matchguide Rating: 6.17 based on 5 votes. ::::
Singles Match
Mayu Iwatani defeats Rin Kadokura (7:17)
:::: Matchguide Rating: 7.80 based on 9 votes. ::::
Tag Team Match
Mio Momono & Starlight Kid defeat AZM & Mei Hoshizuki (11:12)
:::: Not enough votes for total rating. ::::
Singles Match
Takumi Iroha defeats Hibiki (26:30)

Marvelous 5th Anniversary

Complete name : 2021.07.19 Marvelous 5th Anniversary.mp4
Format : MPEG-4
Format profile : Base Media
Codec ID : isom
File size : 2.75 GiB
Duration : 2 h 41 min
Overall bit rate : 2 445 kb/s

Video
ID : 1
Format : AVC
Format/Info : Advanced Video
Duration : 2 h 41 min
Bit rate : 2 228 kb/s
Width : 1 280 pixels
Height : 720 pixels
Display aspect ratio : 16:9
Frame rate mode : Variable
Frame rate : 30.000 FPS
Minimum frame rate : 29.960 FPS
Maximum frame rate : 30.010 FPS
Color space : YUV
Chroma subsampling : 4:2:0
Bit depth : 8 bits
Scan type : Progressive
Bits/(Pixel*Frame) : 0.081
Stream size : 2.51 GiB (91%)
Codec configuration box : avc

Marvelous 5th Anniversary

Audio
ID : 2
Format : AAC LC
Format/Info : Advanced Audio
Codec ID : mp4a-40-2
Duration : 2 h 41 min
Bit rate mode : Constant
Bit rate : 210 kb/s
Channel(s) : 2 channels
Channel layout : L R
Sampling rate : 44.1 kHz
Frame rate : 43.066 FPS (1024 SPF)
Compression mode : Lossy
Stream size : 242 MiB (9%)
Default : Yes
Alternate group : 1

Marvelous 5th Anniversary

Name of the event: Marvelous 5th Anniversary
Date: 19.07.2021
Promotion: Marvelous That’s Women Pro Wrestling
Type: Event
Location: Tokyo, Japan
Arena: Korakuen Hall

:::: Not enough votes for total rating. ::::
Singles Match
Kaoru Ito defeats Ai Houzan (6:54)
:::: Not enough votes for total rating. ::::
Singles Match
Hartley Jackson defeats Leo Isaka (8:29)
:::: Not enough votes for total rating. ::::
Six Man Tag Team Hardcore Match
ASUKA, Chikayo Nagashima & KAORU defeat Mikoto Shindo, Tomoko Watanabe & Yuki Miyazaki (16:44)
:::: Matchguide Rating: 6.17 based on 5 votes. ::::
Singles Match
Mayu Iwatani defeats Rin Kadokura (7:17)
:::: Matchguide Rating: 7.80 based on 9 votes. ::::
Tag Team Match
Mio Momono & Starlight Kid defeat AZM & Mei Hoshizuki (11:12)
:::: Not enough votes for total rating. ::::
Singles Match
Takumi Iroha defeats Hibiki (26:30)

Marvelous 5th Anniversary

Complete name : 2021.07.19 Marvelous 5th Anniversary.mp4
Format : MPEG-4
Format profile : Base Media
Codec ID : isom
File size : 2.75 GiB
Duration : 2 h 41 min
Overall bit rate : 2 445 kb/s

Video
ID : 1
Format : AVC
Format/Info : Advanced Video
Duration : 2 h 41 min
Bit rate : 2 228 kb/s
Width : 1 280 pixels
Height : 720 pixels
Display aspect ratio : 16:9
Frame rate mode : Variable
Frame rate : 30.000 FPS
Minimum frame rate : 29.960 FPS
Maximum frame rate : 30.010 FPS
Color space : YUV
Chroma subsampling : 4:2:0
Bit depth : 8 bits
Scan type : Progressive
Bits/(Pixel*Frame) : 0.081
Stream size : 2.51 GiB (91%)
Codec configuration box : avc

Marvelous 5th Anniversary

Audio
ID : 2
Format : AAC LC
Format/Info : Advanced Audio
Codec ID : mp4a-40-2
Duration : 2 h 41 min
Bit rate mode : Constant
Bit rate : 210 kb/s
Channel(s) : 2 channels
Channel layout : L R
Sampling rate : 44.1 kHz
Frame rate : 43.066 FPS (1024 SPF)
Compression mode : Lossy
Stream size : 242 MiB (9%)
Default : Yes
Alternate group : 1

Marvelous 5th Anniversary

Name of the event: Marvelous 5th Anniversary
Date: 19.07.2021
Promotion: Marvelous That’s Women Pro Wrestling
Type: Event
Location: Tokyo, Japan
Arena: Korakuen Hall

:::: Not enough votes for total rating. ::::
Singles Match
Kaoru Ito defeats Ai Houzan (6:54)
:::: Not enough votes for total rating. ::::
Singles Match
Hartley Jackson defeats Leo Isaka (8:29)
:::: Not enough votes for total rating. ::::
Six Man Tag Team Hardcore Match
ASUKA, Chikayo Nagashima & KAORU defeat Mikoto Shindo, Tomoko Watanabe & Yuki Miyazaki (16:44)
:::: Matchguide Rating: 6.17 based on 5 votes. ::::
Singles Match
Mayu Iwatani defeats Rin Kadokura (7:17)
:::: Matchguide Rating: 7.80 based on 9 votes. ::::
Tag Team Match
Mio Momono & Starlight Kid defeat AZM & Mei Hoshizuki (11:12)
:::: Not enough votes for total rating. ::::
Singles Match
Takumi Iroha defeats Hibiki (26:30)

Marvelous 5th Anniversary

Complete name : 2021.07.19 Marvelous 5th Anniversary.mp4
Format : MPEG-4
Format profile : Base Media
Codec ID : isom
File size : 2.75 GiB
Duration : 2 h 41 min
Overall bit rate : 2 445 kb/s

Video
ID : 1
Format : AVC
Format/Info : Advanced Video
Duration : 2 h 41 min
Bit rate : 2 228 kb/s
Width : 1 280 pixels
Height : 720 pixels
Display aspect ratio : 16:9
Frame rate mode : Variable
Frame rate : 30.000 FPS
Minimum frame rate : 29.960 FPS
Maximum frame rate : 30.010 FPS
Color space : YUV
Chroma subsampling : 4:2:0
Bit depth : 8 bits
Scan type : Progressive
Bits/(Pixel*Frame) : 0.081
Stream size : 2.51 GiB (91%)
Codec configuration box : avc

Marvelous 5th Anniversary

Audio
ID : 2
Format : AAC LC
Format/Info : Advanced Audio
Codec ID : mp4a-40-2
Duration : 2 h 41 min
Bit rate mode : Constant
Bit rate : 210 kb/s
Channel(s) : 2 channels
Channel layout : L R
Sampling rate : 44.1 kHz
Frame rate : 43.066 FPS (1024 SPF)
Compression mode : Lossy
Stream size : 242 MiB (9%)
Default : Yes
Alternate group : 1

Marvelous 5th Anniversary

Name of the event: Marvelous 5th Anniversary
Date: 19.07.2021
Promotion: Marvelous That’s Women Pro Wrestling
Type: Event
Location: Tokyo, Japan
Arena: Korakuen Hall

:::: Not enough votes for total rating. ::::
Singles Match
Kaoru Ito defeats Ai Houzan (6:54)
:::: Not enough votes for total rating. ::::
Singles Match
Hartley Jackson defeats Leo Isaka (8:29)
:::: Not enough votes for total rating. ::::
Six Man Tag Team Hardcore Match
ASUKA, Chikayo Nagashima & KAORU defeat Mikoto Shindo, Tomoko Watanabe & Yuki Miyazaki (16:44)
:::: Matchguide Rating: 6.17 based on 5 votes. ::::
Singles Match
Mayu Iwatani defeats Rin Kadokura (7:17)
:::: Matchguide Rating: 7.80 based on 9 votes. ::::
Tag Team Match
Mio Momono & Starlight Kid defeat AZM & Mei Hoshizuki (11:12)
:::: Not enough votes for total rating. ::::
Singles Match
Takumi Iroha defeats Hibiki (26:30)

Marvelous 5th Anniversary

 

[collapse]

 

 

https://dx-tv.com/

Leave a Reply

Your email address will not be published. Required fields are marked *

This site uses Akismet to reduce spam. Learn how your comment data is processed.

Previous Post
WWE NXT LIVE

WWE NXT Free 2021 July 20 1080p Full Show Replay

Next Post
OZ Academy

OZ Academy wrestling The Fortress 2021 07 11 Free