Lucha Underground S04E05 1080p WEB HEEL Watch / Download

Lucha Underground S04E05 1080p WEB HEEL Watch / Download

 

 

 

 


 

 

 

dx-tv.com

 

 

 

 

 

 

Complete name : Lucha.Underground.S04E05.1080p.WEB.h264-HEEL.mp4
Format : MPEG-4
Format profile : Base Media
Codec ID : isom
File size : 1.40 GiB
Duration : 45mn 14s
Overall bit rate : 4 443 Kbps

Video
ID : 1
Format : AVC
Format/Info : Advanced Video Codec
Codec ID/Info : Advanced Video Coding
Duration : 45mn 14s
Bit rate mode : Constant
Bit rate : 4 300 Kbps
Width : 1 920 pixels
Height : 1 080 pixels
Display aspect ratio : 16:9
Frame rate mode : Variable
Frame rate : 29.970 fps
Minimum frame rate : 19.309 fps
Maximum frame rate : 30.070 fps
Color space : YUV
Chroma subsampling : 4:2:0
Bit depth : 8 bits
Scan type : Progressive
Bits/(Pixel*Frame) : 0.069
Stream size : 1.36 GiB (97%)

Audio
ID : 2
Format : AAC
Format/Info : Advanced Audio Codec
Format profile : LC
Codec ID : 40
Duration : 45mn 14s
Bit rate mode : Variable
Bit rate : 126 Kbps
Maximum bit rate : 127 Kbps
Channel(s) : 2 channels
Channel positions : Front: L R
Sampling rate : 44.1 KHz
Compression mode : Lossy
Stream size : 40.7 MiB (3%)

 

 

 

 

 

 

Lucha Underground S04E05 1080p WEB HEEL Watch / Download

 

 

 

 

Watch online

 

 

Waiting finish converting video

 

 

Server 1

 

 

 

 

 

 

 

 

 

 

 

 

 

 

Server 2

 

 

 

 

 

 

 

 

 

 

 

 

 

Uploaded By Site DX-TV.com

 

 

 

open rar file to see this password

 

 

 

 

The password : DX-TV.com

 

 

 

 

 

Uploaded.net + rapidgator.net

 

 

 

 

 

http://shrt10.com/ma8R

 

 

 

 

 

http://shrt10.com/3hV42N4j

 

 

 

 

 

 

 

 

Lucha Underground S04E05 1080p WEB HEEL Watch / Download

Support HVIPS

Please Disable Ad-Block To View This site. just help us to continue this work