Lucha Underground S04E02 Darkness and the Monster Watch /Download

Lucha Underground S04E02 Darkness and the Monster Watch /Download

 

 

 

 

 

 

dx-tv

 

 

 

 

 

 

 

Complete name : Lucha Underground S04E02 Darkness and the Monster.mp4
Format : MPEG-4
Format profile : Base Media / Version 2
Codec ID : mp42
File size : 1.64 GiB
Duration : 44mn 24s
Overall bit rate : 5 278 Kbps
Genre : Sports
Encoded date : UTC 2018-06-20 07:00:00
Tagged date : UTC 2018-06-21 07:11:10

Video
ID : 2
Format : AVC
Format/Info : Advanced Video Codec
Codec ID : avc1
Codec ID/Info : Advanced Video Coding
Duration : 44mn 24s
Bit rate mode : Variable
Bit rate : 5 150 Kbps
Width : 1 430 pixels
Height : 1 068 pixels
Display aspect ratio : 16:9
Frame rate mode : Constant
Frame rate : 29.970 fps
Color space : YUV
Chroma subsampling : 4:2:0
Bit depth : 8 bits
Scan type : Progressive
Bits/(Pixel*Frame) : 0.113
Stream size : 1.60 GiB (98%)
Language : English

Audio
ID : 1
Format : AAC
Format/Info : Advanced Audio Codec
Format profile : LC
Codec ID : 40
Duration : 44mn 24s
Bit rate mode : Variable
Bit rate : 124 Kbps
Maximum bit rate : 186 Kbps
Channel(s) : 2 channels
Channel positions : Front: L R
Sampling rate : 48.0 KHz
Compression mode : Lossy
Stream size : 39.4 MiB (2%)
Language : English
Encoded date : UTC 2018-06-21 07:09:13
Tagged date : UTC 2018-06-21 07:11:10

 

 

 

 

 

 

 

Lucha Underground S04E02 Darkness and the Monster Watch /Download

 

 

 

 

Watch online

 

 

Waiting finish converting video

 

 

Server 1

 

 

 

 

 

 

 

 

 

 

 

 

 

 

 

 

 

 

 

 

Server 2

 

 

 

 

 

 

 

 

 

 

 

 

 

 

 

 

 

 

Uploaded By Site DX-TV.com

 

 

 

open rar file to see this password

 

 

 

 

The password is : DX-TV.com

 

 

 

 

 

Uploaded.net + rapidgator.net

 

 

 

 

 

 
http://shrt10.com/11J98E

 
http://shrt10.com/58w7nyg
 

 

 

 

 

 

 

 

 

 

Lucha Underground S04E02 Darkness and the Monster Watch /Download