JCW Battlebowl The Lethal Lottery 15 08 2021 Free

JCW Battlebowl The Lethal Lottery 15 08 2021 Online Free Replay DX-TV

JCW Battlebowl

 JCW Battlebowl

 

 

 

Download Links with premium High Speed


 

Dopapk

 

 

Show Links

 

http://shrt10.com/jRn4ixU7e

 

[collapse]

 

 

Nitroflare

 

 

Show Links

 

http://shrt10.com/HnWmRgi

 

[collapse]

 

 

Rapidgator

 

 

Show Links

 

http://shrt10.com/egRIfHF

 

[collapse]

 

 

Uploaded

 

 

Show Links

 

http://shrt10.com/Aa8vcm

 

[collapse]

 

 

Watch online

 

Server 1

 

 

 

 

JCW Battlebowl

 

 

 

 

Server-2

 

 

 

 

watch now

 

 

 

|Server-3

 

 

 

 

watch now

 

 

Uploaded By Site DX-TV.com

 

 

Show Info This Show

JCW Battlebowl

 

Complete name : JCW Battlebowl The Lethal Lottery 15.08.21.mp4
Format : MPEG-4
Format profile : Base Media
Codec ID : isom
File size : 2.59 GiB
Duration : 2 h 38 min
Overall bit rate : 2 341 kb/s

Video
ID : 1
Format : AVC
Format/Info : Advanced Video
Duration : 2 h 38 min
Bit rate : 2 205 kb/s
Width : 1 920 pixels
Height : 1 080 pixels
Display aspect ratio : 16:9
Frame rate mode : Variable
Frame rate : 30.000 FPS
Minimum frame rate : 29.412 FPS
Maximum frame rate : 30.303 FPS
Color space : YUV
Chroma subsampling : 4:2:0
Bit depth : 8 bits
Scan type : Progressive
Bits/(Pixel*Frame) : 0.035
Stream size : 2.44 GiB (94%)
Color range : Limited
Color primaries : BT.709
Transfer characteristics : BT.709
Matrix coefficients : BT.709
Codec configuration box : avc

JCW Battlebowl

Audio
ID : 2
Format : AAC LC
Format/Info : Advanced Audio
Codec ID : mp4a-40-2
Duration : 2 h 38 min
Bit rate mode : Constant
Bit rate : 128 kb/s
Channel(s) : 2 channels
Channel layout : L R
Sampling rate : 44.1 kHz
Frame rate : 43.066 FPS
Compression mode : Lossy
Stream size : 145 MiB (5%)
Default : Yes
Alternate group : 1

JCW Battlebowl

Name of the event: JCW BATTLEBOWL: The Lethal Lottery
Date: 15.08.2021
Promotion: Game Changer Wrestling
Type: TV-Show
Location: Ridgefield Park, New Jersey, USA
Arena: Ridgefield Park Knights Of Columbus
Broadcast type: Live
Broadcast date: 15.08.2021
TV station/network: YouTube.com
Official video: External link

JCW Battlebowl

:::: Not eligible for the matchguide: at least one worker in the match does not have a profile. ::::
Tag Team Match
Jordan Oliver & Marcus Mathers defeat KTB & Steve Scott (9:01)
:::: Not eligible for the matchguide: at least one worker in the match does not have a profile. ::::
Tag Team Match
Big Vin & Janai Kai defeat Donovan & Ellis Taylor (13:24)
:::: Not eligible for the matchguide: at least one worker in the match does not have a profile. ::::
Tag Team Match
Cole Radrick & Dyln McKay defeat Jimmy Lloyd & Steve Sanders (6:52)
:::: Not recommended yet. ::::

JCW Battlebowl

Tag Team Match
Grim Reefer & Hallowicked defeat Frightmare & Ken Broadway (5:45)
:::: Not eligible for the matchguide: at least one worker in the match does not have a profile. ::::
Tag Team Match
Billie Starkz & Charles Mason defeat Everett Connors & Kit Osbourne (9:05)
:::: Not eligible for the matchguide: at least one worker in the match does not have a profile. ::::
Tag Team Match
Bam Sullivan & Slade defeat Matt Makowski & Yoya (8:02)
:::: Not eligible for the matchguide: at least one worker in the match does not have a profile. ::::
Tag Team Match
Joshua Bishop & Pat Marchese defeat Young Dumb N Broke (Charlie Tiger & Griffin McCoy) (9:25)
:::: Not recommended yet. ::::
Singles Match
Azrieal defeats Archadia (10:52)

JCW Battlebowl

Complete name : JCW Battlebowl The Lethal Lottery 15.08.21.mp4
Format : MPEG-4
Format profile : Base Media
Codec ID : isom
File size : 2.59 GiB
Duration : 2 h 38 min
Overall bit rate : 2 341 kb/s

Video
ID : 1
Format : AVC
Format/Info : Advanced Video
Duration : 2 h 38 min
Bit rate : 2 205 kb/s
Width : 1 920 pixels
Height : 1 080 pixels
Display aspect ratio : 16:9
Frame rate mode : Variable
Frame rate : 30.000 FPS
Minimum frame rate : 29.412 FPS
Maximum frame rate : 30.303 FPS
Color space : YUV
Chroma subsampling : 4:2:0
Bit depth : 8 bits
Scan type : Progressive
Bits/(Pixel*Frame) : 0.035
Stream size : 2.44 GiB (94%)
Color range : Limited
Color primaries : BT.709
Transfer characteristics : BT.709
Matrix coefficients : BT.709
Codec configuration box : avc

JCW Battlebowl

Audio
ID : 2
Format : AAC LC
Format/Info : Advanced Audio
Codec ID : mp4a-40-2
Duration : 2 h 38 min
Bit rate mode : Constant
Bit rate : 128 kb/s
Channel(s) : 2 channels
Channel layout : L R
Sampling rate : 44.1 kHz
Frame rate : 43.066 FPS
Compression mode : Lossy
Stream size : 145 MiB (5%)
Default : Yes
Alternate group : 1

JCW Battlebowl

Name of the event: JCW BATTLEBOWL: The Lethal Lottery
Date: 15.08.2021
Promotion: Game Changer Wrestling
Type: TV-Show
Location: Ridgefield Park, New Jersey, USA
Arena: Ridgefield Park Knights Of Columbus
Broadcast type: Live
Broadcast date: 15.08.2021
TV station/network: YouTube.com
Official video: External link

JCW Battlebowl

 

:::: Not eligible for the matchguide: at least one worker in the match does not have a profile. ::::
Tag Team Match
Jordan Oliver & Marcus Mathers defeat KTB & Steve Scott (9:01)
:::: Not eligible for the matchguide: at least one worker in the match does not have a profile. ::::
Tag Team Match
Big Vin & Janai Kai defeat Donovan & Ellis Taylor (13:24)
:::: Not eligible for the matchguide: at least one worker in the match does not have a profile. ::::
Tag Team Match
Cole Radrick & Dyln McKay defeat Jimmy Lloyd & Steve Sanders (6:52)
:::: Not recommended yet. ::::

JCW Battlebowl

Tag Team Match
Grim Reefer & Hallowicked defeat Frightmare & Ken Broadway (5:45)
:::: Not eligible for the matchguide: at least one worker in the match does not have a profile. ::::
Tag Team Match
Billie Starkz & Charles Mason defeat Everett Connors & Kit Osbourne (9:05)
:::: Not eligible for the matchguide: at least one worker in the match does not have a profile. ::::
Tag Team Match
Bam Sullivan & Slade defeat Matt Makowski & Yoya (8:02)
:::: Not eligible for the matchguide: at least one worker in the match does not have a profile. ::::
Tag Team Match
Joshua Bishop & Pat Marchese defeat Young Dumb N Broke (Charlie Tiger & Griffin McCoy) (9:25)
:::: Not recommended yet. ::::
Singles Match
Azrieal defeats Archadia (10:52)

JCW Battlebowl

Complete name : JCW Battlebowl The Lethal Lottery 15.08.21.mp4
Format : MPEG-4
Format profile : Base Media
Codec ID : isom
File size : 2.59 GiB
Duration : 2 h 38 min
Overall bit rate : 2 341 kb/s

Video
ID : 1
Format : AVC
Format/Info : Advanced Video
Duration : 2 h 38 min
Bit rate : 2 205 kb/s
Width : 1 920 pixels
Height : 1 080 pixels
Display aspect ratio : 16:9
Frame rate mode : Variable
Frame rate : 30.000 FPS
Minimum frame rate : 29.412 FPS
Maximum frame rate : 30.303 FPS
Color space : YUV
Chroma subsampling : 4:2:0
Bit depth : 8 bits
Scan type : Progressive
Bits/(Pixel*Frame) : 0.035
Stream size : 2.44 GiB (94%)
Color range : Limited
Color primaries : BT.709
Transfer characteristics : BT.709
Matrix coefficients : BT.709
Codec configuration box : avc

JCW Battlebowl

Audio
ID : 2
Format : AAC LC
Format/Info : Advanced Audio
Codec ID : mp4a-40-2
Duration : 2 h 38 min
Bit rate mode : Constant
Bit rate : 128 kb/s
Channel(s) : 2 channels
Channel layout : L R
Sampling rate : 44.1 kHz
Frame rate : 43.066 FPS
Compression mode : Lossy
Stream size : 145 MiB (5%)
Default : Yes
Alternate group : 1

JCW Battlebowl

Name of the event: JCW BATTLEBOWL: The Lethal Lottery
Date: 15.08.2021
Promotion: Game Changer Wrestling
Type: TV-Show
Location: Ridgefield Park, New Jersey, USA
Arena: Ridgefield Park Knights Of Columbus
Broadcast type: Live
Broadcast date: 15.08.2021
TV station/network: YouTube.com
Official video: External link

JCW Battlebowl

 

:::: Not eligible for the matchguide: at least one worker in the match does not have a profile. ::::
Tag Team Match
Jordan Oliver & Marcus Mathers defeat KTB & Steve Scott (9:01)
:::: Not eligible for the matchguide: at least one worker in the match does not have a profile. ::::
Tag Team Match
Big Vin & Janai Kai defeat Donovan & Ellis Taylor (13:24)
:::: Not eligible for the matchguide: at least one worker in the match does not have a profile. ::::
Tag Team Match
Cole Radrick & Dyln McKay defeat Jimmy Lloyd & Steve Sanders (6:52)
:::: Not recommended yet. ::::

JCW Battlebowl

Tag Team Match
Grim Reefer & Hallowicked defeat Frightmare & Ken Broadway (5:45)
:::: Not eligible for the matchguide: at least one worker in the match does not have a profile. ::::
Tag Team Match
Billie Starkz & Charles Mason defeat Everett Connors & Kit Osbourne (9:05)
:::: Not eligible for the matchguide: at least one worker in the match does not have a profile. ::::
Tag Team Match
Bam Sullivan & Slade defeat Matt Makowski & Yoya (8:02)
:::: Not eligible for the matchguide: at least one worker in the match does not have a profile. ::::
Tag Team Match
Joshua Bishop & Pat Marchese defeat Young Dumb N Broke (Charlie Tiger & Griffin McCoy) (9:25)
:::: Not recommended yet. ::::
Singles Match
Azrieal defeats Archadia (10:52)

JCW Battlebowl

Complete name : JCW Battlebowl The Lethal Lottery 15.08.21.mp4
Format : MPEG-4
Format profile : Base Media
Codec ID : isom
File size : 2.59 GiB
Duration : 2 h 38 min
Overall bit rate : 2 341 kb/s

Video
ID : 1
Format : AVC
Format/Info : Advanced Video
Duration : 2 h 38 min
Bit rate : 2 205 kb/s
Width : 1 920 pixels
Height : 1 080 pixels
Display aspect ratio : 16:9
Frame rate mode : Variable
Frame rate : 30.000 FPS
Minimum frame rate : 29.412 FPS
Maximum frame rate : 30.303 FPS
Color space : YUV
Chroma subsampling : 4:2:0
Bit depth : 8 bits
Scan type : Progressive
Bits/(Pixel*Frame) : 0.035
Stream size : 2.44 GiB (94%)
Color range : Limited
Color primaries : BT.709
Transfer characteristics : BT.709
Matrix coefficients : BT.709
Codec configuration box : avc

JCW Battlebowl

Audio
ID : 2
Format : AAC LC
Format/Info : Advanced Audio
Codec ID : mp4a-40-2
Duration : 2 h 38 min
Bit rate mode : Constant
Bit rate : 128 kb/s
Channel(s) : 2 channels
Channel layout : L R
Sampling rate : 44.1 kHz
Frame rate : 43.066 FPS
Compression mode : Lossy
Stream size : 145 MiB (5%)
Default : Yes
Alternate group : 1

JCW Battlebowl

Name of the event: JCW BATTLEBOWL: The Lethal Lottery
Date: 15.08.2021
Promotion: Game Changer Wrestling
Type: TV-Show
Location: Ridgefield Park, New Jersey, USA
Arena: Ridgefield Park Knights Of Columbus
Broadcast type: Live
Broadcast date: 15.08.2021
TV station/network: YouTube.com
Official video: External link

JCW Battlebowl

 

:::: Not eligible for the matchguide: at least one worker in the match does not have a profile. ::::
Tag Team Match
Jordan Oliver & Marcus Mathers defeat KTB & Steve Scott (9:01)
:::: Not eligible for the matchguide: at least one worker in the match does not have a profile. ::::
Tag Team Match
Big Vin & Janai Kai defeat Donovan & Ellis Taylor (13:24)
:::: Not eligible for the matchguide: at least one worker in the match does not have a profile. ::::
Tag Team Match
Cole Radrick & Dyln McKay defeat Jimmy Lloyd & Steve Sanders (6:52)
:::: Not recommended yet. ::::

JCW Battlebowl

Tag Team Match
Grim Reefer & Hallowicked defeat Frightmare & Ken Broadway (5:45)
:::: Not eligible for the matchguide: at least one worker in the match does not have a profile. ::::
Tag Team Match
Billie Starkz & Charles Mason defeat Everett Connors & Kit Osbourne (9:05)
:::: Not eligible for the matchguide: at least one worker in the match does not have a profile. ::::
Tag Team Match
Bam Sullivan & Slade defeat Matt Makowski & Yoya (8:02)
:::: Not eligible for the matchguide: at least one worker in the match does not have a profile. ::::
Tag Team Match
Joshua Bishop & Pat Marchese defeat Young Dumb N Broke (Charlie Tiger & Griffin McCoy) (9:25)
:::: Not recommended yet. ::::
Singles Match
Azrieal defeats Archadia (10:52)

JCW Battlebowl

Complete name : JCW Battlebowl The Lethal Lottery 15.08.21.mp4
Format : MPEG-4
Format profile : Base Media
Codec ID : isom
File size : 2.59 GiB
Duration : 2 h 38 min
Overall bit rate : 2 341 kb/s

Video
ID : 1
Format : AVC
Format/Info : Advanced Video
Duration : 2 h 38 min
Bit rate : 2 205 kb/s
Width : 1 920 pixels
Height : 1 080 pixels
Display aspect ratio : 16:9
Frame rate mode : Variable
Frame rate : 30.000 FPS
Minimum frame rate : 29.412 FPS
Maximum frame rate : 30.303 FPS
Color space : YUV
Chroma subsampling : 4:2:0
Bit depth : 8 bits
Scan type : Progressive
Bits/(Pixel*Frame) : 0.035
Stream size : 2.44 GiB (94%)
Color range : Limited
Color primaries : BT.709
Transfer characteristics : BT.709
Matrix coefficients : BT.709
Codec configuration box : avc

JCW Battlebowl

Audio
ID : 2
Format : AAC LC
Format/Info : Advanced Audio
Codec ID : mp4a-40-2
Duration : 2 h 38 min
Bit rate mode : Constant
Bit rate : 128 kb/s
Channel(s) : 2 channels
Channel layout : L R
Sampling rate : 44.1 kHz
Frame rate : 43.066 FPS
Compression mode : Lossy
Stream size : 145 MiB (5%)
Default : Yes
Alternate group : 1

JCW Battlebowl

Name of the event: JCW BATTLEBOWL: The Lethal Lottery
Date: 15.08.2021
Promotion: Game Changer Wrestling
Type: TV-Show
Location: Ridgefield Park, New Jersey, USA
Arena: Ridgefield Park Knights Of Columbus
Broadcast type: Live
Broadcast date: 15.08.2021
TV station/network: YouTube.com
Official video: External link

JCW Battlebowl

 

:::: Not eligible for the matchguide: at least one worker in the match does not have a profile. ::::
Tag Team Match
Jordan Oliver & Marcus Mathers defeat KTB & Steve Scott (9:01)
:::: Not eligible for the matchguide: at least one worker in the match does not have a profile. ::::
Tag Team Match
Big Vin & Janai Kai defeat Donovan & Ellis Taylor (13:24)
:::: Not eligible for the matchguide: at least one worker in the match does not have a profile. ::::
Tag Team Match
Cole Radrick & Dyln McKay defeat Jimmy Lloyd & Steve Sanders (6:52)
:::: Not recommended yet. ::::

JCW Battlebowl

Tag Team Match
Grim Reefer & Hallowicked defeat Frightmare & Ken Broadway (5:45)
:::: Not eligible for the matchguide: at least one worker in the match does not have a profile. ::::
Tag Team Match
Billie Starkz & Charles Mason defeat Everett Connors & Kit Osbourne (9:05)
:::: Not eligible for the matchguide: at least one worker in the match does not have a profile. ::::
Tag Team Match
Bam Sullivan & Slade defeat Matt Makowski & Yoya (8:02)
:::: Not eligible for the matchguide: at least one worker in the match does not have a profile. ::::
Tag Team Match
Joshua Bishop & Pat Marchese defeat Young Dumb N Broke (Charlie Tiger & Griffin McCoy) (9:25)
:::: Not recommended yet. ::::
Singles Match
Azrieal defeats Archadia (10:52)

JCW Battlebowl

Complete name : JCW Battlebowl The Lethal Lottery 15.08.21.mp4
Format : MPEG-4
Format profile : Base Media
Codec ID : isom
File size : 2.59 GiB
Duration : 2 h 38 min
Overall bit rate : 2 341 kb/s

Video
ID : 1
Format : AVC
Format/Info : Advanced Video
Duration : 2 h 38 min
Bit rate : 2 205 kb/s
Width : 1 920 pixels
Height : 1 080 pixels
Display aspect ratio : 16:9
Frame rate mode : Variable
Frame rate : 30.000 FPS
Minimum frame rate : 29.412 FPS
Maximum frame rate : 30.303 FPS
Color space : YUV
Chroma subsampling : 4:2:0
Bit depth : 8 bits
Scan type : Progressive
Bits/(Pixel*Frame) : 0.035
Stream size : 2.44 GiB (94%)
Color range : Limited
Color primaries : BT.709
Transfer characteristics : BT.709
Matrix coefficients : BT.709
Codec configuration box : avc

JCW Battlebowl

Audio
ID : 2
Format : AAC LC
Format/Info : Advanced Audio
Codec ID : mp4a-40-2
Duration : 2 h 38 min
Bit rate mode : Constant
Bit rate : 128 kb/s
Channel(s) : 2 channels
Channel layout : L R
Sampling rate : 44.1 kHz
Frame rate : 43.066 FPS
Compression mode : Lossy
Stream size : 145 MiB (5%)
Default : Yes
Alternate group : 1

JCW Battlebowl

Name of the event: JCW BATTLEBOWL: The Lethal Lottery
Date: 15.08.2021
Promotion: Game Changer Wrestling
Type: TV-Show
Location: Ridgefield Park, New Jersey, USA
Arena: Ridgefield Park Knights Of Columbus
Broadcast type: Live
Broadcast date: 15.08.2021
TV station/network: YouTube.com
Official video: External link

JCW Battlebowl

 

:::: Not eligible for the matchguide: at least one worker in the match does not have a profile. ::::
Tag Team Match
Jordan Oliver & Marcus Mathers defeat KTB & Steve Scott (9:01)
:::: Not eligible for the matchguide: at least one worker in the match does not have a profile. ::::
Tag Team Match
Big Vin & Janai Kai defeat Donovan & Ellis Taylor (13:24)
:::: Not eligible for the matchguide: at least one worker in the match does not have a profile. ::::
Tag Team Match
Cole Radrick & Dyln McKay defeat Jimmy Lloyd & Steve Sanders (6:52)
:::: Not recommended yet. ::::

JCW Battlebowl

Tag Team Match
Grim Reefer & Hallowicked defeat Frightmare & Ken Broadway (5:45)
:::: Not eligible for the matchguide: at least one worker in the match does not have a profile. ::::
Tag Team Match
Billie Starkz & Charles Mason defeat Everett Connors & Kit Osbourne (9:05)
:::: Not eligible for the matchguide: at least one worker in the match does not have a profile. ::::
Tag Team Match
Bam Sullivan & Slade defeat Matt Makowski & Yoya (8:02)
:::: Not eligible for the matchguide: at least one worker in the match does not have a profile. ::::
Tag Team Match
Joshua Bishop & Pat Marchese defeat Young Dumb N Broke (Charlie Tiger & Griffin McCoy) (9:25)
:::: Not recommended yet. ::::
Singles Match
Azrieal defeats Archadia (10:52)

JCW Battlebowl

Complete name : JCW Battlebowl The Lethal Lottery 15.08.21.mp4
Format : MPEG-4
Format profile : Base Media
Codec ID : isom
File size : 2.59 GiB
Duration : 2 h 38 min
Overall bit rate : 2 341 kb/s

Video
ID : 1
Format : AVC
Format/Info : Advanced Video
Duration : 2 h 38 min
Bit rate : 2 205 kb/s
Width : 1 920 pixels
Height : 1 080 pixels
Display aspect ratio : 16:9
Frame rate mode : Variable
Frame rate : 30.000 FPS
Minimum frame rate : 29.412 FPS
Maximum frame rate : 30.303 FPS
Color space : YUV
Chroma subsampling : 4:2:0
Bit depth : 8 bits
Scan type : Progressive
Bits/(Pixel*Frame) : 0.035
Stream size : 2.44 GiB (94%)
Color range : Limited
Color primaries : BT.709
Transfer characteristics : BT.709
Matrix coefficients : BT.709
Codec configuration box : avc

JCW Battlebowl

Audio
ID : 2
Format : AAC LC
Format/Info : Advanced Audio
Codec ID : mp4a-40-2
Duration : 2 h 38 min
Bit rate mode : Constant
Bit rate : 128 kb/s
Channel(s) : 2 channels
Channel layout : L R
Sampling rate : 44.1 kHz
Frame rate : 43.066 FPS
Compression mode : Lossy
Stream size : 145 MiB (5%)
Default : Yes
Alternate group : 1

JCW Battlebowl

Name of the event: JCW BATTLEBOWL: The Lethal Lottery
Date: 15.08.2021
Promotion: Game Changer Wrestling
Type: TV-Show
Location: Ridgefield Park, New Jersey, USA
Arena: Ridgefield Park Knights Of Columbus
Broadcast type: Live
Broadcast date: 15.08.2021
TV station/network: YouTube.com
Official video: External link

JCW Battlebowl

:::: Not eligible for the matchguide: at least one worker in the match does not have a profile. ::::
Tag Team Match
Jordan Oliver & Marcus Mathers defeat KTB & Steve Scott (9:01)
:::: Not eligible for the matchguide: at least one worker in the match does not have a profile. ::::
Tag Team Match
Big Vin & Janai Kai defeat Donovan & Ellis Taylor (13:24)
:::: Not eligible for the matchguide: at least one worker in the match does not have a profile. ::::
Tag Team Match
Cole Radrick & Dyln McKay defeat Jimmy Lloyd & Steve Sanders (6:52)
:::: Not recommended yet. ::::

JCW Battlebowl

Tag Team Match
Grim Reefer & Hallowicked defeat Frightmare & Ken Broadway (5:45)
:::: Not eligible for the matchguide: at least one worker in the match does not have a profile. ::::
Tag Team Match
Billie Starkz & Charles Mason defeat Everett Connors & Kit Osbourne (9:05)
:::: Not eligible for the matchguide: at least one worker in the match does not have a profile. ::::
Tag Team Match
Bam Sullivan & Slade defeat Matt Makowski & Yoya (8:02)
:::: Not eligible for the matchguide: at least one worker in the match does not have a profile. ::::
Tag Team Match
Joshua Bishop & Pat Marchese defeat Young Dumb N Broke (Charlie Tiger & Griffin McCoy) (9:25)
:::: Not recommended yet. ::::
Singles Match
Azrieal defeats Archadia (10:52)

JCW Battlebowl

Complete name : JCW Battlebowl The Lethal Lottery 15.08.21.mp4
Format : MPEG-4
Format profile : Base Media
Codec ID : isom
File size : 2.59 GiB
Duration : 2 h 38 min
Overall bit rate : 2 341 kb/s

Video
ID : 1
Format : AVC
Format/Info : Advanced Video
Duration : 2 h 38 min
Bit rate : 2 205 kb/s
Width : 1 920 pixels
Height : 1 080 pixels
Display aspect ratio : 16:9
Frame rate mode : Variable
Frame rate : 30.000 FPS
Minimum frame rate : 29.412 FPS
Maximum frame rate : 30.303 FPS
Color space : YUV
Chroma subsampling : 4:2:0
Bit depth : 8 bits
Scan type : Progressive
Bits/(Pixel*Frame) : 0.035
Stream size : 2.44 GiB (94%)
Color range : Limited
Color primaries : BT.709
Transfer characteristics : BT.709
Matrix coefficients : BT.709
Codec configuration box : avc

JCW Battlebowl

Audio
ID : 2
Format : AAC LC
Format/Info : Advanced Audio
Codec ID : mp4a-40-2
Duration : 2 h 38 min
Bit rate mode : Constant
Bit rate : 128 kb/s
Channel(s) : 2 channels
Channel layout : L R
Sampling rate : 44.1 kHz
Frame rate : 43.066 FPS
Compression mode : Lossy
Stream size : 145 MiB (5%)
Default : Yes
Alternate group : 1

JCW Battlebowl

Name of the event: JCW BATTLEBOWL: The Lethal Lottery
Date: 15.08.2021
Promotion: Game Changer Wrestling
Type: TV-Show
Location: Ridgefield Park, New Jersey, USA
Arena: Ridgefield Park Knights Of Columbus
Broadcast type: Live
Broadcast date: 15.08.2021
TV station/network: YouTube.com
Official video: External link

JCW Battlebowl

:::: Not eligible for the matchguide: at least one worker in the match does not have a profile. ::::
Tag Team Match
Jordan Oliver & Marcus Mathers defeat KTB & Steve Scott (9:01)
:::: Not eligible for the matchguide: at least one worker in the match does not have a profile. ::::
Tag Team Match
Big Vin & Janai Kai defeat Donovan & Ellis Taylor (13:24)
:::: Not eligible for the matchguide: at least one worker in the match does not have a profile. ::::
Tag Team Match
Cole Radrick & Dyln McKay defeat Jimmy Lloyd & Steve Sanders (6:52)
:::: Not recommended yet. ::::

JCW Battlebowl

Tag Team Match
Grim Reefer & Hallowicked defeat Frightmare & Ken Broadway (5:45)
:::: Not eligible for the matchguide: at least one worker in the match does not have a profile. ::::
Tag Team Match
Billie Starkz & Charles Mason defeat Everett Connors & Kit Osbourne (9:05)
:::: Not eligible for the matchguide: at least one worker in the match does not have a profile. ::::
Tag Team Match
Bam Sullivan & Slade defeat Matt Makowski & Yoya (8:02)
:::: Not eligible for the matchguide: at least one worker in the match does not have a profile. ::::
Tag Team Match
Joshua Bishop & Pat Marchese defeat Young Dumb N Broke (Charlie Tiger & Griffin McCoy) (9:25)
:::: Not recommended yet. ::::
Singles Match
Azrieal defeats Archadia (10:52)

JCW Battlebowl

 

[collapse]

 

 

https://dx-tv.com/

Leave a Reply

Your email address will not be published. Required fields are marked *

This site uses Akismet to reduce spam. Learn how your comment data is processed.