IWTV 100 2021 08 08 720p Online Free Replay

IWTV 100 2021 08 08 720p Online Free Replay DX-TV

IWTV 100

 IWTV 100

 

 

 

Download Links with premium High Speed


 

Dopapk

 

 

Show Links

 

http://shrt10.com/VLR5rysAZ

 

[collapse]

 

 

Nitroflare

 

 

Show Links

 

http://shrt10.com/A7tPc2T

 

[collapse]

 

 

Rapidgator

 

 

Show Links

 

http://shrt10.com/Q74n5zc8

 

[collapse]

 

 

Uploaded

 

 

Show Links

 

http://shrt10.com/Nocs1

 

[collapse]

 

 

Watch online

 

Server 1

 

 

 

 

watch now

 

 

 

 

Server-2

 

 

 

 

IWTV 100

 

 

 

|Server-3

 

 

 

 

watch now

 

 

Uploaded By Site DX-TV.com

 

 

Show Info This Show

IWTV 100

 

Complete name : IWTV.2021.08.08.100.720p.WEB.h264-.mp4
Format : MPEG-4
Format profile : Base Media
Codec ID : isom
File size : 2.23 GiB
Duration : 3 h 10 min
Overall bit rate : 1 675 kb/s

IWTV 100

Video
ID : 1
Format : AVC
Format/Info : Advanced Video
Duration : 3 h 10 min
Bit rate : 1 536 kb/s
Width : 1 280 pixels
Height : 720 pixels
Display aspect ratio : 16:9
Frame rate mode : Variable
Frame rate : 29.970 (29970/1000) FPS
Minimum frame rate : 29.960 FPS
Maximum frame rate : 29.970 FPS
Color space : YUV
Chroma subsampling : 4:2:0
Bit depth : 8 bits
Scan type : Progressive
Bits/(Pixel*Frame) : 0.056
Stream size : 2.05 GiB (92%)

IWTV 100

Audio
ID : 2
Format : AAC LC
Format/Info : Advanced Audio
Codec ID : mp4a-40-2
Duration : 3 h 10 min
Bit rate mode : Constant
Bit rate : 130 kb/s
Channel(s) : 2 channels
Channel layout : L R
Sampling rate : 48.0 kHz
Frame rate : 46.875 FPS (1024 SPF)
Compression mode : Lossy
Stream size : 177 MiB (8%)
Default : Yes
Alternate group : 1

IWTV 100

Complete name : IWTV.2021.08.08.100.720p.WEB.h264-.mp4
Format : MPEG-4
Format profile : Base Media
Codec ID : isom
File size : 2.23 GiB
Duration : 3 h 10 min
Overall bit rate : 1 675 kb/s

IWTV 100

Video
ID : 1
Format : AVC
Format/Info : Advanced Video
Duration : 3 h 10 min
Bit rate : 1 536 kb/s
Width : 1 280 pixels
Height : 720 pixels
Display aspect ratio : 16:9
Frame rate mode : Variable
Frame rate : 29.970 (29970/1000) FPS
Minimum frame rate : 29.960 FPS
Maximum frame rate : 29.970 FPS
Color space : YUV
Chroma subsampling : 4:2:0
Bit depth : 8 bits
Scan type : Progressive
Bits/(Pixel*Frame) : 0.056
Stream size : 2.05 GiB (92%)

IWTV 100

Audio
ID : 2
Format : AAC LC
Format/Info : Advanced Audio
Codec ID : mp4a-40-2
Duration : 3 h 10 min
Bit rate mode : Constant
Bit rate : 130 kb/s
Channel(s) : 2 channels
Channel layout : L R
Sampling rate : 48.0 kHz
Frame rate : 46.875 FPS (1024 SPF)
Compression mode : Lossy
Stream size : 177 MiB (8%)
Default : Yes
Alternate group : 1

IWTV 100

Complete name : IWTV.2021.08.08.100.720p.WEB.h264-.mp4
Format : MPEG-4
Format profile : Base Media
Codec ID : isom
File size : 2.23 GiB
Duration : 3 h 10 min
Overall bit rate : 1 675 kb/s

IWTV 100

Video
ID : 1
Format : AVC
Format/Info : Advanced Video
Duration : 3 h 10 min
Bit rate : 1 536 kb/s
Width : 1 280 pixels
Height : 720 pixels
Display aspect ratio : 16:9
Frame rate mode : Variable
Frame rate : 29.970 (29970/1000) FPS
Minimum frame rate : 29.960 FPS
Maximum frame rate : 29.970 FPS
Color space : YUV
Chroma subsampling : 4:2:0
Bit depth : 8 bits
Scan type : Progressive
Bits/(Pixel*Frame) : 0.056
Stream size : 2.05 GiB (92%)

IWTV 100

Audio
ID : 2
Format : AAC LC
Format/Info : Advanced Audio
Codec ID : mp4a-40-2
Duration : 3 h 10 min
Bit rate mode : Constant
Bit rate : 130 kb/s
Channel(s) : 2 channels
Channel layout : L R
Sampling rate : 48.0 kHz
Frame rate : 46.875 FPS (1024 SPF)
Compression mode : Lossy
Stream size : 177 MiB (8%)
Default : Yes
Alternate group : 1

IWTV 100

Complete name : IWTV.2021.08.08.100.720p.WEB.h264-.mp4
Format : MPEG-4
Format profile : Base Media
Codec ID : isom
File size : 2.23 GiB
Duration : 3 h 10 min
Overall bit rate : 1 675 kb/s

IWTV 100

Video
ID : 1
Format : AVC
Format/Info : Advanced Video
Duration : 3 h 10 min
Bit rate : 1 536 kb/s
Width : 1 280 pixels
Height : 720 pixels
Display aspect ratio : 16:9
Frame rate mode : Variable
Frame rate : 29.970 (29970/1000) FPS
Minimum frame rate : 29.960 FPS
Maximum frame rate : 29.970 FPS
Color space : YUV
Chroma subsampling : 4:2:0
Bit depth : 8 bits
Scan type : Progressive
Bits/(Pixel*Frame) : 0.056
Stream size : 2.05 GiB (92%)

IWTV 100

Audio
ID : 2
Format : AAC LC
Format/Info : Advanced Audio
Codec ID : mp4a-40-2
Duration : 3 h 10 min
Bit rate mode : Constant
Bit rate : 130 kb/s
Channel(s) : 2 channels
Channel layout : L R
Sampling rate : 48.0 kHz
Frame rate : 46.875 FPS (1024 SPF)
Compression mode : Lossy
Stream size : 177 MiB (8%)
Default : Yes
Alternate group : 1

IWTV 100

Complete name : IWTV.2021.08.08.100.720p.WEB.h264-.mp4
Format : MPEG-4
Format profile : Base Media
Codec ID : isom
File size : 2.23 GiB
Duration : 3 h 10 min
Overall bit rate : 1 675 kb/s

IWTV 100

Video
ID : 1
Format : AVC
Format/Info : Advanced Video
Duration : 3 h 10 min
Bit rate : 1 536 kb/s
Width : 1 280 pixels
Height : 720 pixels
Display aspect ratio : 16:9
Frame rate mode : Variable
Frame rate : 29.970 (29970/1000) FPS
Minimum frame rate : 29.960 FPS
Maximum frame rate : 29.970 FPS
Color space : YUV
Chroma subsampling : 4:2:0
Bit depth : 8 bits
Scan type : Progressive
Bits/(Pixel*Frame) : 0.056
Stream size : 2.05 GiB (92%)

IWTV 100

Audio
ID : 2
Format : AAC LC
Format/Info : Advanced Audio
Codec ID : mp4a-40-2
Duration : 3 h 10 min
Bit rate mode : Constant
Bit rate : 130 kb/s
Channel(s) : 2 channels
Channel layout : L R
Sampling rate : 48.0 kHz
Frame rate : 46.875 FPS (1024 SPF)
Compression mode : Lossy
Stream size : 177 MiB (8%)
Default : Yes
Alternate group : 1

IWTV 100

Complete name : IWTV.2021.08.08.100.720p.WEB.h264-.mp4
Format : MPEG-4
Format profile : Base Media
Codec ID : isom
File size : 2.23 GiB
Duration : 3 h 10 min
Overall bit rate : 1 675 kb/s

IWTV 100

Video
ID : 1
Format : AVC
Format/Info : Advanced Video
Duration : 3 h 10 min
Bit rate : 1 536 kb/s
Width : 1 280 pixels
Height : 720 pixels
Display aspect ratio : 16:9
Frame rate mode : Variable
Frame rate : 29.970 (29970/1000) FPS
Minimum frame rate : 29.960 FPS
Maximum frame rate : 29.970 FPS
Color space : YUV
Chroma subsampling : 4:2:0
Bit depth : 8 bits
Scan type : Progressive
Bits/(Pixel*Frame) : 0.056
Stream size : 2.05 GiB (92%)

IWTV 100

Audio
ID : 2
Format : AAC LC
Format/Info : Advanced Audio
Codec ID : mp4a-40-2
Duration : 3 h 10 min
Bit rate mode : Constant
Bit rate : 130 kb/s
Channel(s) : 2 channels
Channel layout : L R
Sampling rate : 48.0 kHz
Frame rate : 46.875 FPS (1024 SPF)
Compression mode : Lossy
Stream size : 177 MiB (8%)
Default : Yes
Alternate group : 1

IWTV 100

Complete name : IWTV.2021.08.08.100.720p.WEB.h264-.mp4
Format : MPEG-4
Format profile : Base Media
Codec ID : isom
File size : 2.23 GiB
Duration : 3 h 10 min
Overall bit rate : 1 675 kb/s

IWTV 100

Video
ID : 1
Format : AVC
Format/Info : Advanced Video
Duration : 3 h 10 min
Bit rate : 1 536 kb/s
Width : 1 280 pixels
Height : 720 pixels
Display aspect ratio : 16:9
Frame rate mode : Variable
Frame rate : 29.970 (29970/1000) FPS
Minimum frame rate : 29.960 FPS
Maximum frame rate : 29.970 FPS
Color space : YUV
Chroma subsampling : 4:2:0
Bit depth : 8 bits
Scan type : Progressive
Bits/(Pixel*Frame) : 0.056
Stream size : 2.05 GiB (92%)

IWTV 100

Audio
ID : 2
Format : AAC LC
Format/Info : Advanced Audio
Codec ID : mp4a-40-2
Duration : 3 h 10 min
Bit rate mode : Constant
Bit rate : 130 kb/s
Channel(s) : 2 channels
Channel layout : L R
Sampling rate : 48.0 kHz
Frame rate : 46.875 FPS (1024 SPF)
Compression mode : Lossy
Stream size : 177 MiB (8%)
Default : Yes
Alternate group : 1

IWTV 100

Complete name : IWTV.2021.08.08.100.720p.WEB.h264-.mp4
Format : MPEG-4
Format profile : Base Media
Codec ID : isom
File size : 2.23 GiB
Duration : 3 h 10 min
Overall bit rate : 1 675 kb/s

IWTV 100

Video
ID : 1
Format : AVC
Format/Info : Advanced Video
Duration : 3 h 10 min
Bit rate : 1 536 kb/s
Width : 1 280 pixels
Height : 720 pixels
Display aspect ratio : 16:9
Frame rate mode : Variable
Frame rate : 29.970 (29970/1000) FPS
Minimum frame rate : 29.960 FPS
Maximum frame rate : 29.970 FPS
Color space : YUV
Chroma subsampling : 4:2:0
Bit depth : 8 bits
Scan type : Progressive
Bits/(Pixel*Frame) : 0.056
Stream size : 2.05 GiB (92%)

IWTV 100

Audio
ID : 2
Format : AAC LC
Format/Info : Advanced Audio
Codec ID : mp4a-40-2
Duration : 3 h 10 min
Bit rate mode : Constant
Bit rate : 130 kb/s
Channel(s) : 2 channels
Channel layout : L R
Sampling rate : 48.0 kHz
Frame rate : 46.875 FPS (1024 SPF)
Compression mode : Lossy
Stream size : 177 MiB (8%)
Default : Yes
Alternate group : 1

IWTV 100

Complete name : IWTV.2021.08.08.100.720p.WEB.h264-.mp4
Format : MPEG-4
Format profile : Base Media
Codec ID : isom
File size : 2.23 GiB
Duration : 3 h 10 min
Overall bit rate : 1 675 kb/s

IWTV 100

Video
ID : 1
Format : AVC
Format/Info : Advanced Video
Duration : 3 h 10 min
Bit rate : 1 536 kb/s
Width : 1 280 pixels
Height : 720 pixels
Display aspect ratio : 16:9
Frame rate mode : Variable
Frame rate : 29.970 (29970/1000) FPS
Minimum frame rate : 29.960 FPS
Maximum frame rate : 29.970 FPS
Color space : YUV
Chroma subsampling : 4:2:0
Bit depth : 8 bits
Scan type : Progressive
Bits/(Pixel*Frame) : 0.056
Stream size : 2.05 GiB (92%)

IWTV 100

Audio
ID : 2
Format : AAC LC
Format/Info : Advanced Audio
Codec ID : mp4a-40-2
Duration : 3 h 10 min
Bit rate mode : Constant
Bit rate : 130 kb/s
Channel(s) : 2 channels
Channel layout : L R
Sampling rate : 48.0 kHz
Frame rate : 46.875 FPS (1024 SPF)
Compression mode : Lossy
Stream size : 177 MiB (8%)
Default : Yes
Alternate group : 1

IWTV 100

IWTV celebrates the 100th defense of the IWTV Independent Wrestling Championship with IWTV 100 streaming LIVE from Williamstown, New Jersey!

IWTV Independent Wrestling Championship: Wheeler Yuta (c) vs Daniel Garica
Orange Cassidy and Kris Statlander vs Lee Moriarty and Trish Adora
WARHORSE vs John Wayne Murdoch
Jonathan Gresham vs Adam Priest
Ladder Match: Steve Sanders vs GG Everson vs Reid Walker vs Austin Luke vs Ryan Redfield vs Marcus Mathers
Matt Makowski vs Kevin Ku
Logan Easton LaRoux, Richard Holliday and Alexander James vs Hallowicked, Jigsaw and Ultramantis Black
Kevin Blackwood vs Eric Martin

IWTV 100

Complete name : IWTV.2021.08.08.100.720p.WEB.h264-.mp4
Format : MPEG-4
Format profile : Base Media
Codec ID : isom
File size : 2.23 GiB
Duration : 3 h 10 min
Overall bit rate : 1 675 kb/s

IWTV 100

Video
ID : 1
Format : AVC
Format/Info : Advanced Video
Duration : 3 h 10 min
Bit rate : 1 536 kb/s
Width : 1 280 pixels
Height : 720 pixels
Display aspect ratio : 16:9
Frame rate mode : Variable
Frame rate : 29.970 (29970/1000) FPS
Minimum frame rate : 29.960 FPS
Maximum frame rate : 29.970 FPS
Color space : YUV
Chroma subsampling : 4:2:0
Bit depth : 8 bits
Scan type : Progressive
Bits/(Pixel*Frame) : 0.056
Stream size : 2.05 GiB (92%)

IWTV 100

Audio
ID : 2
Format : AAC LC
Format/Info : Advanced Audio
Codec ID : mp4a-40-2
Duration : 3 h 10 min
Bit rate mode : Constant
Bit rate : 130 kb/s
Channel(s) : 2 channels
Channel layout : L R
Sampling rate : 48.0 kHz
Frame rate : 46.875 FPS (1024 SPF)
Compression mode : Lossy
Stream size : 177 MiB (8%)
Default : Yes
Alternate group : 1

IWTV 100

IWTV celebrates the 100th defense of the IWTV Independent Wrestling Championship with IWTV 100 streaming LIVE from Williamstown, New Jersey!

IWTV Independent Wrestling Championship: Wheeler Yuta (c) vs Daniel Garica
Orange Cassidy and Kris Statlander vs Lee Moriarty and Trish Adora
WARHORSE vs John Wayne Murdoch
Jonathan Gresham vs Adam Priest
Ladder Match: Steve Sanders vs GG Everson vs Reid Walker vs Austin Luke vs Ryan Redfield vs Marcus Mathers
Matt Makowski vs Kevin Ku
Logan Easton LaRoux, Richard Holliday and Alexander James vs Hallowicked, Jigsaw and Ultramantis Black
Kevin Blackwood vs Eric Martin

IWTV 100

Complete name : IWTV.2021.08.08.100.720p.WEB.h264-.mp4
Format : MPEG-4
Format profile : Base Media
Codec ID : isom
File size : 2.23 GiB
Duration : 3 h 10 min
Overall bit rate : 1 675 kb/s

IWTV 100

Video
ID : 1
Format : AVC
Format/Info : Advanced Video
Duration : 3 h 10 min
Bit rate : 1 536 kb/s
Width : 1 280 pixels
Height : 720 pixels
Display aspect ratio : 16:9
Frame rate mode : Variable
Frame rate : 29.970 (29970/1000) FPS
Minimum frame rate : 29.960 FPS
Maximum frame rate : 29.970 FPS
Color space : YUV
Chroma subsampling : 4:2:0
Bit depth : 8 bits
Scan type : Progressive
Bits/(Pixel*Frame) : 0.056
Stream size : 2.05 GiB (92%)

IWTV 100

Audio
ID : 2
Format : AAC LC
Format/Info : Advanced Audio
Codec ID : mp4a-40-2
Duration : 3 h 10 min
Bit rate mode : Constant
Bit rate : 130 kb/s
Channel(s) : 2 channels
Channel layout : L R
Sampling rate : 48.0 kHz
Frame rate : 46.875 FPS (1024 SPF)
Compression mode : Lossy
Stream size : 177 MiB (8%)
Default : Yes
Alternate group : 1

IWTV 100

IWTV celebrates the 100th defense of the IWTV Independent Wrestling Championship with IWTV 100 streaming LIVE from Williamstown, New Jersey!

IWTV Independent Wrestling Championship: Wheeler Yuta (c) vs Daniel Garica
Orange Cassidy and Kris Statlander vs Lee Moriarty and Trish Adora
WARHORSE vs John Wayne Murdoch
Jonathan Gresham vs Adam Priest
Ladder Match: Steve Sanders vs GG Everson vs Reid Walker vs Austin Luke vs Ryan Redfield vs Marcus Mathers
Matt Makowski vs Kevin Ku
Logan Easton LaRoux, Richard Holliday and Alexander James vs Hallowicked, Jigsaw and Ultramantis Black
Kevin Blackwood vs Eric Martin

IWTV 100

Complete name : IWTV.2021.08.08.100.720p.WEB.h264-.mp4
Format : MPEG-4
Format profile : Base Media
Codec ID : isom
File size : 2.23 GiB
Duration : 3 h 10 min
Overall bit rate : 1 675 kb/s

IWTV 100

Video
ID : 1
Format : AVC
Format/Info : Advanced Video
Duration : 3 h 10 min
Bit rate : 1 536 kb/s
Width : 1 280 pixels
Height : 720 pixels
Display aspect ratio : 16:9
Frame rate mode : Variable
Frame rate : 29.970 (29970/1000) FPS
Minimum frame rate : 29.960 FPS
Maximum frame rate : 29.970 FPS
Color space : YUV
Chroma subsampling : 4:2:0
Bit depth : 8 bits
Scan type : Progressive
Bits/(Pixel*Frame) : 0.056
Stream size : 2.05 GiB (92%)

IWTV 100

Audio
ID : 2
Format : AAC LC
Format/Info : Advanced Audio
Codec ID : mp4a-40-2
Duration : 3 h 10 min
Bit rate mode : Constant
Bit rate : 130 kb/s
Channel(s) : 2 channels
Channel layout : L R
Sampling rate : 48.0 kHz
Frame rate : 46.875 FPS (1024 SPF)
Compression mode : Lossy
Stream size : 177 MiB (8%)
Default : Yes
Alternate group : 1

IWTV 100

IWTV celebrates the 100th defense of the IWTV Independent Wrestling Championship with IWTV 100 streaming LIVE from Williamstown, New Jersey!

IWTV Independent Wrestling Championship: Wheeler Yuta (c) vs Daniel Garica
Orange Cassidy and Kris Statlander vs Lee Moriarty and Trish Adora
WARHORSE vs John Wayne Murdoch
Jonathan Gresham vs Adam Priest
Ladder Match: Steve Sanders vs GG Everson vs Reid Walker vs Austin Luke vs Ryan Redfield vs Marcus Mathers
Matt Makowski vs Kevin Ku
Logan Easton LaRoux, Richard Holliday and Alexander James vs Hallowicked, Jigsaw and Ultramantis Black
Kevin Blackwood vs Eric Martin

IWTV 100

Complete name : IWTV.2021.08.08.100.720p.WEB.h264-.mp4
Format : MPEG-4
Format profile : Base Media
Codec ID : isom
File size : 2.23 GiB
Duration : 3 h 10 min
Overall bit rate : 1 675 kb/s

IWTV 100

Video
ID : 1
Format : AVC
Format/Info : Advanced Video
Duration : 3 h 10 min
Bit rate : 1 536 kb/s
Width : 1 280 pixels
Height : 720 pixels
Display aspect ratio : 16:9
Frame rate mode : Variable
Frame rate : 29.970 (29970/1000) FPS
Minimum frame rate : 29.960 FPS
Maximum frame rate : 29.970 FPS
Color space : YUV
Chroma subsampling : 4:2:0
Bit depth : 8 bits
Scan type : Progressive
Bits/(Pixel*Frame) : 0.056
Stream size : 2.05 GiB (92%)

IWTV 100

Audio
ID : 2
Format : AAC LC
Format/Info : Advanced Audio
Codec ID : mp4a-40-2
Duration : 3 h 10 min
Bit rate mode : Constant
Bit rate : 130 kb/s
Channel(s) : 2 channels
Channel layout : L R
Sampling rate : 48.0 kHz
Frame rate : 46.875 FPS (1024 SPF)
Compression mode : Lossy
Stream size : 177 MiB (8%)
Default : Yes
Alternate group : 1

IWTV 100

IWTV celebrates the 100th defense of the IWTV Independent Wrestling Championship with IWTV 100 streaming LIVE from Williamstown, New Jersey!

IWTV Independent Wrestling Championship: Wheeler Yuta (c) vs Daniel Garica
Orange Cassidy and Kris Statlander vs Lee Moriarty and Trish Adora
WARHORSE vs John Wayne Murdoch
Jonathan Gresham vs Adam Priest
Ladder Match: Steve Sanders vs GG Everson vs Reid Walker vs Austin Luke vs Ryan Redfield vs Marcus Mathers
Matt Makowski vs Kevin Ku
Logan Easton LaRoux, Richard Holliday and Alexander James vs Hallowicked, Jigsaw and Ultramantis Black
Kevin Blackwood vs Eric Martin

IWTV 100

Complete name : IWTV.2021.08.08.100.720p.WEB.h264-.mp4
Format : MPEG-4
Format profile : Base Media
Codec ID : isom
File size : 2.23 GiB
Duration : 3 h 10 min
Overall bit rate : 1 675 kb/s

IWTV 100

Video
ID : 1
Format : AVC
Format/Info : Advanced Video
Duration : 3 h 10 min
Bit rate : 1 536 kb/s
Width : 1 280 pixels
Height : 720 pixels
Display aspect ratio : 16:9
Frame rate mode : Variable
Frame rate : 29.970 (29970/1000) FPS
Minimum frame rate : 29.960 FPS
Maximum frame rate : 29.970 FPS
Color space : YUV
Chroma subsampling : 4:2:0
Bit depth : 8 bits
Scan type : Progressive
Bits/(Pixel*Frame) : 0.056
Stream size : 2.05 GiB (92%)

IWTV 100

Audio
ID : 2
Format : AAC LC
Format/Info : Advanced Audio
Codec ID : mp4a-40-2
Duration : 3 h 10 min
Bit rate mode : Constant
Bit rate : 130 kb/s
Channel(s) : 2 channels
Channel layout : L R
Sampling rate : 48.0 kHz
Frame rate : 46.875 FPS (1024 SPF)
Compression mode : Lossy
Stream size : 177 MiB (8%)
Default : Yes
Alternate group : 1

IWTV 100

IWTV celebrates the 100th defense of the IWTV Independent Wrestling Championship with IWTV 100 streaming LIVE from Williamstown, New Jersey!

IWTV Independent Wrestling Championship: Wheeler Yuta (c) vs Daniel Garica
Orange Cassidy and Kris Statlander vs Lee Moriarty and Trish Adora
WARHORSE vs John Wayne Murdoch
Jonathan Gresham vs Adam Priest
Ladder Match: Steve Sanders vs GG Everson vs Reid Walker vs Austin Luke vs Ryan Redfield vs Marcus Mathers
Matt Makowski vs Kevin Ku
Logan Easton LaRoux, Richard Holliday and Alexander James vs Hallowicked, Jigsaw and Ultramantis Black
Kevin Blackwood vs Eric Martin

IWTV 100

Complete name : IWTV.2021.08.08.100.720p.WEB.h264-.mp4
Format : MPEG-4
Format profile : Base Media
Codec ID : isom
File size : 2.23 GiB
Duration : 3 h 10 min
Overall bit rate : 1 675 kb/s

IWTV 100

Video
ID : 1
Format : AVC
Format/Info : Advanced Video
Duration : 3 h 10 min
Bit rate : 1 536 kb/s
Width : 1 280 pixels
Height : 720 pixels
Display aspect ratio : 16:9
Frame rate mode : Variable
Frame rate : 29.970 (29970/1000) FPS
Minimum frame rate : 29.960 FPS
Maximum frame rate : 29.970 FPS
Color space : YUV
Chroma subsampling : 4:2:0
Bit depth : 8 bits
Scan type : Progressive
Bits/(Pixel*Frame) : 0.056
Stream size : 2.05 GiB (92%)

IWTV 100

Audio
ID : 2
Format : AAC LC
Format/Info : Advanced Audio
Codec ID : mp4a-40-2
Duration : 3 h 10 min
Bit rate mode : Constant
Bit rate : 130 kb/s
Channel(s) : 2 channels
Channel layout : L R
Sampling rate : 48.0 kHz
Frame rate : 46.875 FPS (1024 SPF)
Compression mode : Lossy
Stream size : 177 MiB (8%)
Default : Yes
Alternate group : 1

IWTV 100

IWTV celebrates the 100th defense of the IWTV Independent Wrestling Championship with IWTV 100 streaming LIVE from Williamstown, New Jersey!

IWTV Independent Wrestling Championship: Wheeler Yuta (c) vs Daniel Garica
Orange Cassidy and Kris Statlander vs Lee Moriarty and Trish Adora
WARHORSE vs John Wayne Murdoch
Jonathan Gresham vs Adam Priest
Ladder Match: Steve Sanders vs GG Everson vs Reid Walker vs Austin Luke vs Ryan Redfield vs Marcus Mathers
Matt Makowski vs Kevin Ku
Logan Easton LaRoux, Richard Holliday and Alexander James vs Hallowicked, Jigsaw and Ultramantis Black
Kevin Blackwood vs Eric Martin

IWTV 100

Complete name : IWTV.2021.08.08.100.720p.WEB.h264-.mp4
Format : MPEG-4
Format profile : Base Media
Codec ID : isom
File size : 2.23 GiB
Duration : 3 h 10 min
Overall bit rate : 1 675 kb/s

IWTV 100

Video
ID : 1
Format : AVC
Format/Info : Advanced Video
Duration : 3 h 10 min
Bit rate : 1 536 kb/s
Width : 1 280 pixels
Height : 720 pixels
Display aspect ratio : 16:9
Frame rate mode : Variable
Frame rate : 29.970 (29970/1000) FPS
Minimum frame rate : 29.960 FPS
Maximum frame rate : 29.970 FPS
Color space : YUV
Chroma subsampling : 4:2:0
Bit depth : 8 bits
Scan type : Progressive
Bits/(Pixel*Frame) : 0.056
Stream size : 2.05 GiB (92%)

IWTV 100

Audio
ID : 2
Format : AAC LC
Format/Info : Advanced Audio
Codec ID : mp4a-40-2
Duration : 3 h 10 min
Bit rate mode : Constant
Bit rate : 130 kb/s
Channel(s) : 2 channels
Channel layout : L R
Sampling rate : 48.0 kHz
Frame rate : 46.875 FPS (1024 SPF)
Compression mode : Lossy
Stream size : 177 MiB (8%)
Default : Yes
Alternate group : 1

IWTV 100

IWTV celebrates the 100th defense of the IWTV Independent Wrestling Championship with IWTV 100 streaming LIVE from Williamstown, New Jersey!

IWTV Independent Wrestling Championship: Wheeler Yuta (c) vs Daniel Garica
Orange Cassidy and Kris Statlander vs Lee Moriarty and Trish Adora
WARHORSE vs John Wayne Murdoch
Jonathan Gresham vs Adam Priest
Ladder Match: Steve Sanders vs GG Everson vs Reid Walker vs Austin Luke vs Ryan Redfield vs Marcus Mathers
Matt Makowski vs Kevin Ku
Logan Easton LaRoux, Richard Holliday and Alexander James vs Hallowicked, Jigsaw and Ultramantis Black
Kevin Blackwood vs Eric Martin

IWTV 100

Complete name : IWTV.2021.08.08.100.720p.WEB.h264-.mp4
Format : MPEG-4
Format profile : Base Media
Codec ID : isom
File size : 2.23 GiB
Duration : 3 h 10 min
Overall bit rate : 1 675 kb/s

IWTV 100

Video
ID : 1
Format : AVC
Format/Info : Advanced Video
Duration : 3 h 10 min
Bit rate : 1 536 kb/s
Width : 1 280 pixels
Height : 720 pixels
Display aspect ratio : 16:9
Frame rate mode : Variable
Frame rate : 29.970 (29970/1000) FPS
Minimum frame rate : 29.960 FPS
Maximum frame rate : 29.970 FPS
Color space : YUV
Chroma subsampling : 4:2:0
Bit depth : 8 bits
Scan type : Progressive
Bits/(Pixel*Frame) : 0.056
Stream size : 2.05 GiB (92%)

IWTV 100

Audio
ID : 2
Format : AAC LC
Format/Info : Advanced Audio
Codec ID : mp4a-40-2
Duration : 3 h 10 min
Bit rate mode : Constant
Bit rate : 130 kb/s
Channel(s) : 2 channels
Channel layout : L R
Sampling rate : 48.0 kHz
Frame rate : 46.875 FPS (1024 SPF)
Compression mode : Lossy
Stream size : 177 MiB (8%)
Default : Yes
Alternate group : 1

IWTV 100

IWTV celebrates the 100th defense of the IWTV Independent Wrestling Championship with IWTV 100 streaming LIVE from Williamstown, New Jersey!

IWTV Independent Wrestling Championship: Wheeler Yuta (c) vs Daniel Garica
Orange Cassidy and Kris Statlander vs Lee Moriarty and Trish Adora
WARHORSE vs John Wayne Murdoch
Jonathan Gresham vs Adam Priest
Ladder Match: Steve Sanders vs GG Everson vs Reid Walker vs Austin Luke vs Ryan Redfield vs Marcus Mathers
Matt Makowski vs Kevin Ku
Logan Easton LaRoux, Richard Holliday and Alexander James vs Hallowicked, Jigsaw and Ultramantis Black
Kevin Blackwood vs Eric Martin

IWTV 100

 

[collapse]

 

 

https://dx-tv.com/

Leave a Reply

Your email address will not be published. Required fields are marked *

This site uses Akismet to reduce spam. Learn how your comment data is processed.