IPW UK 2018 04 29 International Battle Royale WEB NCMP /720p Watch / Download

IPW UK 2018 04 29 International Battle Royale WEB NCMP /720p Watch / Download

 

 

 

 

 

 

 

 

 

dx-tv.com

 

 

 

 

Complete name : IPW.UK.2018.04.29.International.Battle.Royale.WEB.h264-NCMP.mp4
Format : MPEG-4
Format profile : Base Media
Codec ID : isom
File size : 1.93 GiB
Duration : 2h 53mn
Overall bit rate : 1 594 Kbps
Writing application : Lavf55.12.100

Video
ID : 2
Format : AVC
Format/Info : Advanced Video Codec
Codec ID : avc1
Codec ID/Info : Advanced Video Coding
Duration : 2h 53mn
Bit rate mode : Variable
Bit rate : 1 494 Kbps
Width : 854 pixels
Height : 480 pixels
Display aspect ratio : 16:9
Frame rate mode : Constant
Frame rate : 29.970 fps
Color space : YUV
Chroma subsampling : 4:2:0
Bit depth : 8 bits
Scan type : Progressive
Bits/(Pixel*Frame) : 0.122
Stream size : 1.81 GiB (94%)

Audio
ID : 1
Format : AAC
Format/Info : Advanced Audio Codec
Format profile : LC
Codec ID : 40
Duration : 2h 53mn
Bit rate mode : Constant
Bit rate : 93.2 Kbps
Channel(s) : 2 channels
Channel positions : Front: L R
Sampling rate : 48.0 KHz
Compression mode : Lossy
Stream size : 115 MiB (6%)

 

 

 

 

International Battle Royale 2018
Video Duration: 02:53:10

The annual IPW ‘International Battle Royale’ 2018 featuring:

IPW Women’s Championship Match
Xia Brookside (c) vs Tenille Dashwood

Jeff Cobb vs Luke Phoenix

Z-Force Championship Match
Kip Sabian (c) vs Maverick Mayhew

IPW Tag Team Championship Match
Filthy Club (c) vs The Collective vs Scala/Noir vs Anti-Fun Police

PLUS A 30 MAN OVER THE TOP ROPE ELIMINATION BATTLE ROYALE!
 

 

 

 

 

IPW UK 2018 04 29 International Battle Royale WEB NCMP /720p Watch / Download

 

 

 

 

Watch online

 

 

Waiting finish converting video

 

 

Server 1

 

 

 

 

 

 

 

 

 

 

 

 

 

 

 

 

 

Server 2

 

 

 

 

 

 


 

 

 

 

Uploaded By Site DX-TV.com

 

 

 

open rar file to see this password

 

 

 

 

The password is : DX-TV.com

 

 

 

 

400p+720p

 

 

 

 

 

Uploaded.net + rapidgator.net

 

 

 

 

 

http://shrt10.com/NxOnkq

 

 

http://shrt10.com/1dUCA

 

 

http://shrt10.com/bwVp

 

 

http://shrt10.com/aXQmq

 

 

 

 

 

 

 

IPW UK 2018 04 29 International Battle Royale WEB NCMP /720p Watch / Download