Invicta FC 44 Full Show Replay Online Free 1080p

Invicta FC 44 Full Show Replay Online Free 1080p Rodriguez vs Torquato DX-TV

Invicta FC 44 Full Show Replay

 Invicta FC 44 Full Show Replay

 

 

 

Download Links with High Speed


Dopapk

 

 

Show Links

 

http://shrt10.com/iWuE1u3
http://shrt10.com/MSzwz

 

[collapse]

 

 

Nitroflare

 

 

Show Links

 

http://shrt10.com/D7AESN
http://shrt10.com/ilwYj7L17

 

[collapse]

 

 

Rapidgator

 

 

Show Links

 

http://shrt10.com/G4TF2
http://shrt10.com/pov1thvQ

 

[collapse]

 

 

Uploaded

 

 

Show Links

 

http://shrt10.com/zc1fFEp
http://shrt10.com/4BM27w

 

[collapse]

 

 

Watch online

 

Server 1

 

 

 

 

Invicta FC 44 Full Show Replay

 

 

 

 

Server-2

 

 

 

 

watch now

 

 

 

|Server-3

 

 

 

 

watch now

 

 

Uploaded By Site DX-TV.com

 

 

Show Info This Show

 

 

Complete name : Invicta FC 44 1080p Rodriguez vs Torquato WEB H264 DX-TV.com.mp4
Format : MPEG-4
Format profile : Base Media
Codec ID : isom
File size : 4.24 GiB
Duration : 3 h 39 min
Overall bit rate mode : Variable
Overall bit rate : 2 767 kb/s

Invicta FC 44 Full Show Replay

Video
ID : 1
Format : AVC
Format/Info : Advanced Video
Duration : 3 h 39 min
Bit rate : 2 629 kb/s
Width : 1 920 pixels
Height : 1 080 pixels
Display aspect ratio : 16:9
Frame rate mode : Variable
Frame rate : 29.970 FPS
Minimum frame rate : 29.412 FPS
Maximum frame rate : 30.303 FPS
Color space : YUV
Chroma subsampling : 4:2:0
Bit depth : 8 bits
Scan type : Progressive
Bits/(Pixel*Frame) : 0.042
Stream size : 4.03 GiB (95%)
Color range : Limited
Color primaries : BT.709
Transfer characteristics : BT.709
Matrix coefficients : BT.709
Codec configuration box : avcC

Audio
ID : 2
Format : AAC LC
Format/Info : Advanced Audio
Codec ID : mp4a-40-2
Duration : 3 h 39 min
Bit rate mode : Variable
Bit rate : 128 kb/s
Maximum bit rate : 130 kb/s
Channel(s) : 2 channels
Channel layout : L R
Sampling rate : 44.1 kHz
Frame rate : 43.066 FPS
Compression mode : Lossy
Stream size : 201 MiB (5%)
Default : Yes
Alternate group : 1

Invicta FC 44 Full Show

Complete name : Invicta FC- Rodriguez vs Torquato.mp4
Format : MPEG-4
Format profile : Base Media
Codec ID : isom
File size : 840 MiB
Duration : 3 h 39 min
Overall bit rate : 535 kb/s

Video
ID : 1
Format : AVC
Format/Info : Advanced Video
Duration : 3 h 39 min
Bit rate : 464 kb/s
Width : 640 pixels
Height : 360 pixels
Display aspect ratio : 16:9
Frame rate mode : Variable
Frame rate : 30.000 FPS
Minimum frame rate : 29.412 FPS
Maximum frame rate : 30.303 FPS
Color space : YUV
Chroma subsampling : 4:2:0
Bit depth : 8 bits
Scan type : Progressive
Bits/(Pixel*Frame) : 0.067
Stream size : 728 MiB (87%)
Codec configuration box : avc

Invicta FC 44 Full Show

Audio
ID : 2
Format : AAC LC SBR
Commercial name : HE-AAC
Format settings : NBC
Codec ID : mp4a-40-5
Duration : 3 h 39 min
Duration_LastFrame : -1 ms
Bit rate mode : Constant
Bit rate : 64.0 kb/s
Channel(s) : 2 channels
Channel layout : L R
Sampling rate : 48.0 kHz
Frame rate : 23.438 FPS (2048 SPF)
Compression mode : Lossy
Stream size : 100 MiB (12%)
Default : Yes
Alternate group : 1

 

Invicta FC 44 Full Show

[collapse]

 

 

https://dx-tv.com/

You May Also Like

1 Comment

Comments are closed.