Invicta FC 29 WEB DL /720p Watch / Download

Invicta FC 29 WEB DL /720p Watch / Download

 

 

 

 

 

 

 

 

 

dx-tv.com

 

 

 

 

 

Complete name : Invicta.FC.29.WEB-DL.mp4
Format : MPEG-4
Format profile : Base Media
Codec ID : isom
File size : 2.24 GiB
Duration : 3h 30mn
Overall bit rate : 1 527 Kbps
Writing application : Lavf56.40.101

Video
ID : 1
Format : AVC
Format/Info : Advanced Video Codec
Codec ID : avc1
Codec ID/Info : Advanced Video Coding
Duration : 3h 30mn
Bit rate mode : Variable
Bit rate : 1 440 Kbps
Width : 960 pixels
Height : 540 pixels
Display aspect ratio : 16:9
Frame rate mode : Constant
Frame rate : 29.970 fps
Color space : YUV
Chroma subsampling : 4:2:0
Bit depth : 8 bits
Scan type : Progressive
Bits/(Pixel*Frame) : 0.093
Stream size : 2.11 GiB (94%)

Audio
ID : 2
Format : AAC
Format/Info : Advanced Audio Codec
Format profile : LC
Codec ID : 40
Duration : 3h 30mn
Bit rate mode : Variable
Bit rate : 77.6 Kbps
Maximum bit rate : 81.7 Kbps
Channel(s) : 2 channels
Channel positions : Front: L R
Sampling rate : 44.1 KHz
Compression mode : Lossy
Stream size : 117 MiB (5%)

 

 

 

 

 

[EVENT]: Invicta.FC.29.720p.WEB-DL.mp4
[SIZE]: 6.48 GB
[SOURCE]: Fight Pass
[CONTAINER]: mp4
[RESOLUTION]: 1280 x 720 @ 29.970 FPS
[VIDEO]: H264 @ 4500 Kbps
[AUDIO]: AAC @ 128 kbps
[Length]: 03:30:33
[Language]: English
 

 

 

 

 

 

 

 

Invicta FC 29 WEB DL /720p Watch / Download

 

 

 

 

Watch online

 

 

Waiting finish converting video

 

 

Server 1

 

 

 

 

 

 

 

 

 

 

 

 

 

Server 2

 

 

 

 

 

 


 

 

 

 

Uploaded By Site DX-TV.com

 

 

 

open rar file to see this password

 

 

 

 

The password is : DX-TV.com

 

 

 

 

400p+720p

 

 

 

 

 

Uploaded.net + rapidgator.net

 

 

 

 

 

 

 

http://shrt10.com/rZSp

 

 

http://shrt10.com/Ottle

 

 

http://shrt10.com/SnvqelTA

 

 

http://shrt10.com/qraPPV

 

 

http://shrt10.com/v1DlNRs

 

 

http://shrt10.com/YbiSo2en

 

 

 

 

 

 

 

 

 

 

Invicta FC 29 WEB DL /720p Watch / Download