iMPACT Wrestling Watch Online 2020 12 22 1080p DX-TV

iMPACT Wrestling Watch Online 2020 12 22 1080p DX-TV

iMPACT Wrestling Watch Online

 iMPACT Wrestling Watch Online

 

Download Links with premium High Speed   

 

 

dropapk.to

http://shrt10.com/rD7zspyZ
http://shrt10.com/57tkHz3j

 

 

nitroflare.com

http://shrt10.com/srY04
http://shrt10.com/g2XFeM4

 

 

rapidgator.net

http://shrt10.com/71nZd
http://shrt10.com/zUlruj

 

 

uploaded.net

http://shrt10.com/4lkhgKB7
http://shrt10.com/5cky360SC

 

 

uploadgig.com

http://shrt10.com/EwfMgZiq
http://shrt10.com/IDYTcBD

 

iMPACT Wrestling Watch Online 

 

Server 1

 

 

 

 

iMPACT Wrestling Watch Online

 

 

 

 

Server-2

 

 

 

 

watch now

 

 

Uploaded By Site DX-TV.com

 

 

 

[su_expand more_text=”Show More Info” less_text=”Close all Info” height=”50″ text_color=”#000000″ link_color=”#e25f8b” link_style=”button” more_icon=”icon: arrow-down” less_icon=”icon: arrow-up”]

Complete name : iMPACT.Wrestling.2020.12.22.1080p.WEB.h264-HEEL.mp4
Format : MPEG-4
Format profile : Base Media
Codec ID : isom
File size : 4.36 GiB
Duration : 1 h 25 min
Overall bit rate : 7 281 kb/s
Writing application : Lavf58.32.104

iMPACT Wrestling Watch Online

Video
ID : 1
Format : AVC
Duration : 1 h 25 min
Bit rate : 7 081 kb/s
Nominal bit rate : 8 500 kb/s
Width : 1 920 pixels
Height : 1 080 pixels
Display aspect ratio : 16:9
Frame rate mode : Constant
Frame rate : 29.970 (30000/1001) FPS
Color space : YUV
Chroma subsampling : 4:2:0
Bit depth : 8 bits
Scan type : Progressive
Bits/(Pixel*Frame) : 0.114
Stream size : 4.24 GiB (97%)
Codec configuration box : avcC

 Wrestling Watch Online

Audio
ID : 2
Format : AAC LC
Format/Info : Advanced Audio
Codec ID : mp4a-40-2
Duration : 1 h 25 min
Bit rate mode : Constant
Bit rate : 192 kb/s
Channel(s) : 2 channels
Channel layout : L R
Sampling rate : 48.0 kHz
Frame rate : 46.875 FPS (1024 SPF)
Compression mode : Lossy
Stream size : 116 MiB (3%)
Default : Yes
Alternate group : 1

Complete name : iMPACT.Wrestling.2020.12.22.WEB.h264-HEEL.mp4
Format : MPEG-4
Format profile : Base Media
Codec ID : isom
File size : 1.92 GiB
Duration : 1 h 25 min
Overall bit rate : 3 217 kb/s
Writing application : Lavf58.32.104

iMPACT Wrestling  Online

Video
ID : 1
Format : AVC
Duration : 1 h 25 min
Bit rate : 3 019 kb/s
Nominal bit rate : 3 500 kb/s
Width : 960 pixels
Height : 540 pixels
Display aspect ratio : 16:9
Frame rate mode : Constant
Frame rate : 29.970 (30000/1001) FPS
Color space : YUV
Chroma subsampling : 4:2:0
Bit depth : 8 bits
Scan type : Progressive
Bits/(Pixel*Frame) : 0.194
Stream size : 1.81 GiB (94%)
Codec configuration box : avcC

iMPACT Wrestling  

Audio
ID : 2
Format : AAC LC
Format/Info : Advanced Audio
Codec ID : mp4a-40-2
Duration : 1 h 25 min
Bit rate mode : Constant
Bit rate : 192 kb/s
Channel(s) : 2 channels
Channel layout : L R
Sampling rate : 48.0 kHz
Frame rate : 46.875 FPS (1024 SPF)
Compression mode : Lossy
Stream size : 116 MiB (6%)
Default : Yes
Alternate group : 1

iMPACT Wrestling   

[/su_expand]

 

https://dx-tv.com/

Leave a Reply

Your email address will not be published. Required fields are marked *

This site uses Akismet to reduce spam. Learn how your comment data is processed.