iMPACT Wrestling Under Siege 2021 05 15 1080p

iMPACT Wrestling Under Siege 2021 05 15 1080p DX-TV

iMPACT Wrestling Under Siege

 iMPACT Wrestling Under Siege

 

 

 

Download Links with High Speed


 

Dopapk

 

 

Show Links

 

http://shrt10.com/tbkYY2d1

 

[collapse]

 

 

Nitroflare

 

 

Show Links

 

http://shrt10.com/Ie4gB
http://shrt10.com/j0CbX

 

[collapse]

 

 

Rapidgator

 

 

Show Links

 

http://shrt10.com/7e6RGz3
http://shrt10.com/86Hdham5

 

[collapse]

 

 

Uploaded

 

 

Show Links

 

http://shrt10.com/c8mOfo

 

[collapse]

 

 

Watch online

 

Server 1

 

 

 

 

iMPACT Wrestling Under Siege

 

 

 

 

Server-2

 

 

 

 

watch now

 

 

 

|Server-3

 

 

 

 

watch now

 

 

Uploaded By Site DX-TV.com

 

 

Show Info This Show

 

 

Complete name : iMPACT.Wrestling.2021.05.15.Under.Siege.1080p.WEB.h264-HEEL.mp4
Format : MPEG-4
Format profile : Base Media
Codec ID : isom
File size : 9.47 GiB
Duration : 2 h 49 min
Overall bit rate mode : Variable
Overall bit rate : 7 993 kb/s

iMPACT Wrestling Under Siege

Video
ID : 1
Format : AVC
Format/Info : Advanced Video
Duration : 2 h 49 min
Bit rate : 7 793 kb/s
Nominal bit rate : 8 500 kb/s
Width : 1 920 pixels
Height : 1 080 pixels
Display aspect ratio : 16:9
Frame rate mode : Constant
Frame rate : 29.970 (30000/1001) FPS
Color space : YUV
Chroma subsampling : 4:2:0
Bit depth : 8 bits
Scan type : Progressive
Bits/(Pixel*Frame) : 0.125
Stream size : 9.23 GiB (97%)

Audio
ID : 2
Format : AAC LC
Codec ID : mp4a-40-2
Duration : 2 h 49 min
Bit rate mode : Variable
Bit rate : 192 kb/s
Channel(s) : 2 channels
Channel layout : L R
Sampling rate : 48.0 kHz
Frame rate : 46.875 FPS
Compression mode : Lossy
Stream size : 230 MiB (2%)
Default : Yes
Alternate group : 1

Complete name : iMPACT.Wrestling.2021.05.15.Under.Siege.WEB.h264-HEEL.mp4
Format : MPEG-4
Format profile : Base Media
Codec ID : isom
File size : 1.66 GiB
Duration : 2 h 49 min
Overall bit rate : 1 398 kb/s

iMPACT Wrestling 

Video
ID : 1
Format : AVC
Format/Info : Advanced Video
Duration : 2 h 49 min
Bit rate : 1 200 kb/s
Width : 640 pixels
Height : 360 pixels
Display aspect ratio : 16:9
Frame rate mode : Constant
Frame rate : 29.970 (30000/1001) FPS
Color space : YUV
Chroma subsampling : 4:2:0
Bit depth : 8 bits
Scan type : Progressive
Bits/(Pixel*Frame) : 0.174
Stream size : 1.42 GiB (86%)

Audio
ID : 2
Format : AAC LC
Format/Info : Advanced Audio
Codec ID : mp4a-40-2
Duration : 2 h 49 min
Bit rate mode : Constant
Bit rate : 192 kb/s
Channel(s) : 2 channels
Channel layout : L R
Sampling rate : 48.0 kHz
Frame rate : 46.875 FPS (1024 SPF)
Compression mode : Lossy
Stream size : 230 MiB (14%)
Default : Yes
Alternate group : 1

iMPACT Wrestling 

Audio
ID : 2
Format : AAC LC
Format/Info : Advanced Audio
Codec ID : mp4a-40-2
Duration : 2 h 49 min
Bit rate mode : Constant
Bit rate : 192 kb/s
Channel(s) : 2 channels
Channel layout : L R
Sampling rate : 48.0 kHz
Frame rate : 46.875 FPS (1024 SPF)
Compression mode : Lossy
Stream size : 230 MiB (14%)
Default : Yes
Alternate group : 1

iMPACT Wrestling 

[collapse]

 

 

https://dx-tv.com/

Leave a Reply

Your email address will not be published. Required fields are marked *

This site uses Akismet to reduce spam. Learn how your comment data is processed.