iMPACT Wrestling Sacrifice 2021 1080p 2021 03 13

iMPACT Wrestling Sacrifice 2021 1080p / 540p 2021 03 13 DX-TV

iMPACT Wrestling Sacrifice 2021 1080p

 iMPACT Wrestling Sacrifice 2021 1080p

 

 

 

Download Links with High Speed


Dopapk

 

 

 

 

Nitroflare

 

 

Show Links

 

http://shrt10.com/TuRtjo
http://shrt10.com/Mp2uWC6

 

[collapse]

 

 

Rapidgator

 

 

Show Links

 

http://shrt10.com/B9ekIncb
http://shrt10.com/q2Jrb4D

 

[collapse]

 

 

Uploaded

 

 

Show Links

 

http://shrt10.com/HwCDKhhR

 

[collapse]

 

 

Watch online

 

Server 1

 

 

 

 

iMPACT Wrestling Sacrifice 2021

 

 

 

 

Server-2

 

 

 

 

watch now

 

 

 

|Server-3

 

 

 

 

iMPACT Wrestling Sacrifice 2021

 

 

Uploaded By Site DX-TV.com

 

 

Show Info This Show

 

 

Complete name : iMPACT.Wrestling.2021.03.13.Sacrifice.WEB.h264-HEEL.mp4
Format : MPEG-4
Format profile : Base Media
Codec ID : isom
File size : 3.90 GiB
Duration : 2 h 45 min
Overall bit rate : 3 362 kb/s

Video
ID : 1
Format : AVC
Duration : 2 h 45 min
Bit rate : 3 164 kb/s
Nominal bit rate : 3 500 kb/s
Width : 960 pixels
Height : 540 pixels
Display aspect ratio : 16:9
Frame rate mode : Constant
Frame rate : 29.970 (30000/1001) FPS
Color space : YUV
Chroma subsampling : 4:2:0
Bit depth : 8 bits
Scan type : Progressive
Bits/(Pixel*Frame) : 0.204
Stream size : 3.67 GiB (94%)

iMPACT Wrestling Sacrifice 2021

Audio
ID : 2
Format : AAC LC
Codec ID : mp4a-40-2
Duration : 2 h 45 min
Bit rate mode : Constant
Bit rate : 192 kb/s
Channel(s) : 2 channels
Channel layout : L R
Sampling rate : 48.0 kHz
Frame rate : 46.875 FPS
Compression mode : Lossy
Stream size : 225 MiB
Default : Yes
Alternate group : 1

iMPACT Wrestling Sacrifice 2021

Complete name : iMPACT.Wrestling.2021.03.13.Sacrifice.1080p.WEB.h264-HEEL.mp4
Format : MPEG-4
Format profile : Base Media
File size : 9.21 GiB
Duration : 2 h 45 min
Overall bit rate mode : Variable
Overall bit rate : 7 946 kb/s

Video
ID : 1
Format : AVC
Duration : 2 h 45 min
Bit rate : 7 746 kb/s
Nominal bit rate : 8 500 kb/s
Width : 1 920 pixels
Height : 1 080 pixels
Display aspect ratio : 16:9
Frame rate mode : Constant
Frame rate : 29.970 (30000/1001) FPS
Color space : YUV
Chroma subsampling : 4:2:0
Bit depth : 8 bits
Scan type : Progressive
Bits/(Pixel*Frame) : 0.125
Stream size : 8.97 GiB (97%)

iMPACT Wrestling Sacrifice 2021

Audio
ID : 2
Format : AAC LC
Codec ID : mp4a-40-2
Duration : 2 h 45 min
Bit rate mode : Variable
Bit rate : 192 kb/s
Channel(s) : 2 channels
Channel layout : L R
Sampling rate : 48.0 kHz
Frame rate : 46.875 FPS
Compression mode : Lossy
Stream size : 225 MiB
Default : Yes
Alternate group : 1

 

 

[collapse]

 

 

https://dx-tv.com/