iMPACT Wrestling Rebellion 2021 04 25 1080p

iMPACT Wrestling Rebellion 2021 04 25 720p / 1080p DX-TV

iMPACT Wrestling Rebellion 2021

 iMPACT Wrestling Rebellion 2021

 

 

 

Download Links with High Speed


Dopapk

 

 

Show Links

 

http://shrt10.com/TjAmx1zF
http://shrt10.com/oFFL4Qb

 

[collapse]

 

 

Nitroflare

 

 

Show Links

 

http://shrt10.com/RIHSw6EvK
http://shrt10.com/rCV6U

 

[collapse]

 

 

Rapidgator

 

 

Show Links

 

http://shrt10.com/ElwUm
http://shrt10.com/CdA8b3oZn

 

[collapse]

 

 

Uploaded

 

 

Show Links

 

http://shrt10.com/Lb003
http://shrt10.com/Q8MtKSjo

 

[collapse]

 

 

Watch online

 

Server 1

 

 

 

 

iMPACT Wrestling Rebellion 2021

 

 

 

 

Server-2

 

 

 

 

watch now

 

 

 

|Server-3

 

 

 

 

watch now

 

 

Uploaded By Site DX-TV.com

 

 

Show Info This Show

 

 

Complete name : iMPACT.Wrestling.2021.04.25.Rebellion.1080p.WEB.h264-HEEL.mp4
Format : MPEG-4
Format profile : Base Media
Codec ID : isom
File size : 4.89 GiB
Duration : 2 h 54 min
Overall bit rate : 4 018 kb/s

iMPACT Wrestling Rebellion 2021

Video
ID : 1
Format : AVC
Duration : 2 h 54 min
Bit rate : 3 880 kb/s
Width : 1 920 pixels
Height : 1 080 pixels
Display aspect ratio : 16:9
Frame rate mode : Variable
Frame rate : 29.970 (30000/1001) FPS
Minimum frame rate : 29.412 FPS
Maximum frame rate : 30.303 FPS
Color space : YUV
Chroma subsampling : 4:2:0
Bit depth : 8 bits
Scan type : Progressive
Bits/(Pixel*Frame) : 0.062
Stream size : 4.73 GiB (97%)
Codec configuration box : avcC

Audio
ID : 2
Format : AAC LC
Format/Info : Advanced Audio
Codec ID : mp4a-40-2
Duration : 2 h 54 min
Bit rate mode : Constant
Bit rate : 126 kb/s
Channel(s) : 2 channels
Channel layout : L R
Sampling rate : 48.0 kHz
Frame rate : 46.875 FPS (1024 SPF)
Compression mode : Lossy
Stream size : 158 MiB (3%)
Default : Yes
Alternate group : 1

iMPACT Wrestling Rebellion

Text #1
ID : 1-CC1
Format : EIA-608
Muxing mode : SCTE 128 / DTVCC Transport
Muxing mode, more info : Muxed in Video #1
Duration : 2 h 54 min
Bit rate mode : Constant
Stream size : 0.00 Byte (0%)
CaptionServiceName : CC1

Text #2
ID : 1-CC3
Format : EIA-608
Muxing mode : SCTE 128 / DTVCC Transport
Muxing mode, more info : Muxed in Video #1
Duration : 2 h 54 min
Bit rate mode : Constant
Stream size : 0.00 Byte (0%)
CaptionServiceName : CC3

Text #3
ID : 1-1
Format : EIA-708
Muxing mode : SCTE 128 / DTVCC Transport
Muxing mode, more info : Muxed in Video #1
Duration : 2 h 54 min
Bit rate mode : Constant
Stream size : 0.00 Byte (0%)

iMPACT Wrestling Rebellion

Complete name : iMPACT.Wrestling.2021.04.25.Rebellion.720p.WEB.h264-HEEL.mp4
Format : MPEG-4
Format profile : Base Media
Codec ID : isom
File size : 2.34 GiB
Duration : 2 h 54 min
Overall bit rate mode : Variable
Overall bit rate : 1 924 kb/s

Video
ID : 1
Format : AVC
Format/Info : Advanced Video
Duration : 2 h 54 min
Bit rate : 1 819 kb/s
Width : 1 280 pixels
Height : 720 pixels
Display aspect ratio : 16:9
Frame rate mode : Variable
Frame rate : 29.970 (30000/1001) FPS
Minimum frame rate : 29.412 FPS
Maximum frame rate : 30.303 FPS
Color space : YUV
Chroma subsampling : 4:2:0
Bit depth : 8 bits
Scan type : Progressive
Bits/(Pixel*Frame) : 0.066
Stream size : 2.22 GiB (95%)
Codec configuration box : avc

iMPACT Wrestling Rebellion

Audio
ID : 2
Format : AAC LC
Format/Info : Advanced Audio
Codec ID : mp4a-40-2
Duration : 2 h 54 min
Bit rate mode : Variable
Bit rate : 96.0 kb/s
Maximum bit rate : 99.4 kb/s
Channel(s) : 2 channels
Channel layout : L R
Sampling rate : 48.0 kHz
Frame rate : 46.875 FPS (1024 SPF)
Compression mode : Lossy
Stream size : 118 MiB (5%)
Default : Yes
Alternate group : 1

Text #1
ID : 1-CC1
Format : EIA-608
Muxing mode : SCTE 128 / DTVCC Transport
Muxing mode, more info : Muxed in Video #1
Duration : 2 h 54 min
Bit rate mode : Constant
Stream size : 0.00 Byte (0%)
CaptionServiceName : CC1

iMPACT Wrestling Rebellion

Text #2
ID : 1-CC3
Format : EIA-608
Muxing mode : SCTE 128 / DTVCC Transport
Muxing mode, more info : Muxed in Video #1
Duration : 2 h 54 min
Bit rate mode : Constant
Stream size : 0.00 Byte (0%)
CaptionServiceName : CC3

Text #3
ID : 1-1
Format : EIA-708
Muxing mode : SCTE 128 / DTVCC Transport
Muxing mode, more info : Muxed in Video #1
Duration : 2 h 54 min
Bit rate mode : Constant
Stream size : 0.00 Byte (0%)

 

iMPACT Wrestling Rebellion

[collapse]

 

 

https://dx-tv.com/