iMPACT Wrestling Online Free 2021 01 05 1080p DX-TV

iMPACT Wrestling Online Free 2021 01 05 1080p DX-TV

iMPACT Wrestling Online Free

 iMPACT Wrestling Online Free

 

Download Links with premium High Speed   

 

 

nitroflare.com

http://shrt10.com/iwmimei
http://shrt10.com/b5gOnZ1

 

 

rapidgator.net

http://shrt10.com/5Tygw
http://shrt10.com/CnGQUy

 

 

uploaded.net

http://shrt10.com/BnUP1B4z
http://shrt10.com/qeVn3V

 

 

uploadgig.com

http://shrt10.com/leeerpwRH
http://shrt10.com/EGrVKGz

 

Watch iMPACT Wrestling Online Free 

 

Server 1

 

 

 

 

watch now

 

 

 

 

Server-2

 

 

 

 

watch now

 

 

Uploaded By Site DX-TV.com

 

Complete name : iMPACT.Wrestling.2021.01.05.1080p.WEB.h264-HEEL.mp4
Format : MPEG-4
Format profile : Base Media
Codec ID : isom
File size : 4.46 GiB
Duration : 1 h 26 min
Overall bit rate mode : Variable
Overall bit rate : 7 417 kb/s
Writing application : Lavf58.32.104

iMPACT Wrestling Online Free

Video
ID : 1
Format : AVC
Format/Info : Advanced Video
Codec ID : avc1
Duration : 1 h 25 min
Bit rate : 7 217 kb/s
Nominal bit rate : 8 500 kb/s
Width : 1 920 pixels
Height : 1 080 pixels
Display aspect ratio : 16:9
Frame rate mode : Constant
Frame rate : 29.970 (30000/1001) FPS
Color space : YUV
Chroma subsampling : 4:2:0
Bit depth : 8 bits
Scan type : Progressive
Bits/(Pixel*Frame) : 0.116
Stream size : 4.34 GiB (97%)

iMPACT Wrestling Online  

Audio
ID : 2
Format : AAC LC
Format/Info : Advanced Audio
Codec ID : mp4a-40-2
Duration : 1 h 26 min
Bit rate mode : Variable
Bit rate : 192 kb/s
Channel(s) : 2 channels
Channel layout : L R
Sampling rate : 48.0 kHz
Frame rate : 46.875 FPS
Compression mode : Lossy
Stream size : 116 MiB (3%)
Default : Yes
Alternate group : 1

iMPACT Wrestling Online  

Complete name : iMPACT.Wrestling.2021.01.05.WEB.h264-HEEL.mp4
Format : MPEG-4
Format profile : Base Media
Codec ID : isom (isom/iso2/avc1/mp41)
File size : 1.98 GiB
Duration : 1 h 26 min
Overall bit rate : 3 303 kb/s
Writing application : Lavf58.32.104

iMPACT Wrestling  Free

Video
ID : 1
Format : AVC
Duration : 1 h 25 min
Bit rate : 3 105 kb/s
Nominal bit rate : 3 500 kb/s
Width : 960 pixels
Height : 540 pixels
Display aspect ratio : 16:9
Frame rate mode : Constant
Frame rate : 29.970 (30000/1001) FPS
Color space : YUV
Chroma subsampling : 4:2:0
Bit depth : 8 bits
Scan type : Progressive
Bits/(Pixel*Frame) : 0.200
Stream size : 1.87 GiB (94%)

Audio
ID : 2
Format : AAC LC
Format/Info : Advanced Audio
Codec ID : mp4a-40-2
Duration : 1 h 26 min
Bit rate mode : Constant
Bit rate : 192 kb/s
Channel(s) : 2 channels
Channel layout : L R
Sampling rate : 48.0 kHz
Frame rate : 46.875 FPS (1024 SPF)
Compression mode : Lossy
Stream size : 116 MiB (6%)
Default : Yes
Alternate group : 1

 

 

 

https://dx-tv.com/

Leave a Reply

Your email address will not be published. Required fields are marked *

This site uses Akismet to reduce spam. Learn how your comment data is processed.