iMPACT Wrestling Online 03 11 2020 /720p

Watch iMPACT Wrestling 2020 11 03 HDTV NWCHD /720p DX-TV

iMPACT Wrestling Online

 

 iMPACT Wrestling Online
 

iMPACT Wrestling Online 03 11 2020 /720p

 

Madison Rayne’s Locker Room Talk w/ Jordynne Grace & Tenille Dashwood

Johnny Swinger returns to co-host Locker Room Talk as Madison welcomes in her guests, Jordynne Grace and Tenille Dashwood.

Both Knockouts are looking for a partner ahead of the Knockouts Tag Title tournament which begins in two weeks.

Jordynne says that despite her partnership with Alisha not working out last week,

she is confident she will find someone else in time, Jordynne admits that Tenille .

will do whatever it takes to win and proposes that they form a team.

Tenille instead asks the former two-time Knockouts Tag Team Champion Madison Rayne to team up!

Madison accepts as Jordynne looks on in frustration.

iMPACT Wrestling Online

Complete name : iMPACT.Wrestling.2020.11.03.HDTV.x264-NWCHD.mp4
Format : MPEG-4
Format profile : Base Media
Codec ID : isom
File size : 972 MiB
Duration : 1 h 25 min
Overall bit rate : 1 581 kb/s
Writing application : Lavf58.27

iMPACT Wrestling Online

Video
ID : 1
Format : AVC
Duration : 1 h 25 min
Bit rate : 1 400 kb/s
Width : 704 pixels
Height : 400 pixels
Display aspect ratio : 16:9
Frame rate mode : Variable
Frame rate : 29.970 FPS
Color space : YUV
Chroma subsampling : 4:2:0
Bit depth : 8 bits
Scan type : Progressive
Bits/(Pixel*Frame) : 0.166
Stream size : 848 MiB (87%)
Color primaries : BT.709
Transfer characteristics : BT.709
Matrix coefficients : BT.709
Codec configuration box : avcC

iMPACT Wrestling Online

Audio
ID : 2
Format : AAC LC
Format/Info : Advanced Audio
Codec ID : mp4a-40-2
Duration : 1 h 25 min
Bit rate mode : Constant
Bit rate : 192 kb/s
Channel(s) : 2 channels
Channel layout : L R
Sampling rate : 48.0 kHz
Frame rate : 46.875 FPS
Compression mode : Lossy
Stream size : 119 MiB
Title : Stereo
Language : English
Default : Yes
Alternate group : 1

 

 

 Wrestling Online 03 11 2020 /720p

 

 

Watch online

 

 

 

Server 1

 

 

iMPACT Wrestling Online

 

 

 

 

Server-2

 

 

 

watch now

 

 

 

 

Uploaded By Site DX-TV.com

 

 

 

 

Download Free Links with normal and high Speed [ more 14 hosts ]  

 

[su_expand more_text=”Show Hosts Info” less_text=”Close all Info” height=”30″ text_color=”#000000″ link_color=”#e25f8b” link_style=”button” more_icon=”icon: arrow-down” less_icon=”icon: arrow-up”]

iMPACT Wrestling Online

 

hexupload.net – clicknupload.co – www.multiup.org – uptobox.com – anonfiles.com – userscloud.com – 

 

 

[/su_expand]

 

 

http://shrt10.com/u46ii5w
http://shrt10.com/43I0a25Uu
http://shrt10.com/xtANN0
http://shrt10.com/bHPPh52
http://shrt10.com/ZKrmy
http://shrt10.com/3Ngei
http://shrt10.com/ZGGnIB
http://shrt10.com/ImQUIMCB
http://shrt10.com/FWvfyY
http://shrt10.com/T2jZsYzmC
http://shrt10.com/hq63iB
http://shrt10.com/coAlXTkYn
http://shrt10.com/dlLf5g32n
http://shrt10.com/UHc11c

 

 

 

 

Download Links with premium High Speed   

 

iMPACT Wrestling Online

 

 

dropapk.to

http://shrt10.com/dFIJF61
http://shrt10.com/q98SUq9I

 

 

nitroflare.com

http://shrt10.com/qbI6nrCN
http://shrt10.com/88kefdaZ

 

 

rapidgator.net

http://shrt10.com/ZVoqx
http://shrt10.com/QZqli

 

 

uploaded.net

http://shrt10.com/nlM1eC
http://shrt10.com/gIwgugTaI

 

 

uploadgig.com

http://shrt10.com/xJfQST
http://shrt10.com/BfOvGK

 

 

 

 

dx-tv.com

 

urlfree.net

You May Also Like

Leave a Reply

Your email address will not be published. Required fields are marked *

This site uses Akismet to reduce spam. Learn how your comment data is processed.