iMPACT Wrestling Hardcore Justice 2021 04 10 720/ 1080p

iMPACT Wrestling Hardcore Justice 2021 04 10 720/ 1080p DX-TV

iMPACT Wrestling Hardcore Justice 2021

 Impact Wrestling Hardcore Justice 2021

 

 

 

Download Links with High Speed


Dopapk

 

 

Show Links

 

http://shrt10.com/FXNR4DZ

http://shrt10.com/ZuCzi
http://shrt10.com/tXOBLj958
http://shrt10.com/cIkPS

 

[collapse]

 

 

Nitroflare

 

 

Show Links

 

http://shrt10.com/PV0sM

http://shrt10.com/1p4GfP

 

[collapse]

 

 

Rapidgator

 

 

Show Links

 

http://shrt10.com/EkLkMHPb

1080p

http://shrt10.com/6Q1vxYSiw
http://shrt10.com/NxwqhsUh
http://shrt10.com/MpjIuRT

 

[collapse]

 

 

Uploaded

 

 

Show Links

 

http://shrt10.com/fjs3DdsY

1080p

http://shrt10.com/74nraWZb
http://shrt10.com/6eHkGxW
http://shrt10.com/M9hjUa

 

[collapse]

 

 

Watch online

 

Server 1

 

 

 

 

watch now

 

 

 

 

Server-2

 

 

 

 

watch now

 

 

 

|Server-3

 

 

 

 

watch now

 

 

Uploaded By Site DX-TV.com

 

 

Show Info This Show

 

 

Complete name : iMPACT.Wrestling.2021.04.10.Hardcore.Justice.1080p.WEB.h264-HEEL.mp4
Format : MPEG-4
Format profile : Base Media
Codec ID : isom
File size : 9.00 GiB
Duration : 2 h 42 min
Overall bit rate mode : Variable
Overall bit rate : 7 951 kb/s

Video
ID : 1
Format : AVC
Duration : 2 h 42 min
Bit rate : 7 751 kb/s
Nominal bit rate : 8 500 kb/s
Width : 1 920 pixels
Height : 1 080 pixels
Display aspect ratio : 16:9
Frame rate mode : Constant
Frame rate : 29.970 (30000/1001) FPS
Color space : YUV
Chroma subsampling : 4:2:0
Bit depth : 8 bits
Scan type : Progressive
Bits/(Pixel*Frame) : 0.125
Stream size : 8.78 GiB (97%)

Audio
ID : 2
Format : AAC LC
Format/Info : Advanced Audio
Codec ID : mp4a-40-2
Duration : 2 h 42 min
Bit rate mode : Variable
Bit rate : 192 kb/s
Channel(s) : 2 channels
Channel layout : L R
Sampling rate : 48.0 kHz
Frame rate : 46.875 FPS
Compression mode : Lossy
Stream size : 220 MiB
Default : Yes
Alternate group : 1

Complete name : iMPACT.Wrestling.2021.04.10.Hardcore.Justice.WEB.h264-HEEL.mp4
Format : MPEG-4
Format profile : Base Media
Codec ID : isom
File size : 1.58 GiB
Duration : 2 h 42 min
Overall bit rate : 1 398 kb/s

Video
ID : 1
Format : AVC
Format/Info : Advanced Video
Duration : 2 h 42 min
Bit rate : 1 200 kb/s
Width : 640 pixels
Height : 360 pixels
Display aspect ratio : 16:9
Frame rate mode : Constant
Frame rate : 29.970 (30000/1001) FPS
Color space : YUV
Chroma subsampling : 4:2:0
Bit depth : 8 bits
Scan type : Progressive
Bits/(Pixel*Frame) : 0.174
Stream size : 1.36 GiB (86%)

Audio
ID : 2
Format : AAC LC
Format/Info : Advanced Audio
Codec ID : mp4a-40-2
Duration : 2 h 42 min
Bit rate mode : Constant
Bit rate : 192 kb/s
Channel(s) : 2 channels
Channel layout : L R
Sampling rate : 48.0 kHz
Frame rate : 46.875 FPS (1024 SPF)
Compression mode : Lossy
Stream size : 220 MiB (14%)
Default : Yes
Alternate group : 1

 

 

[collapse]

 

 

https://dx-tv.com/