IMPACT Wrestling Genesis 2021 Full Show Online DX-TV

IMPACT Wrestling Genesis 2021 540p/ 1080p 8GB Free Online DX-TV

IMPACT Wrestling Genesis 2021

 IMPACT Wrestling Genesis 2021

 

Download Links with premium High Speed   

 

 

nitroflare.com

http://shrt10.com/M1JrdmBb
http://shrt10.com/OyhEY

 

 

rapidgator.net

http://shrt10.com/yNaoi
http://shrt10.com/L58HJU

 

 

uploaded.net

http://shrt10.com/zAvJc37

 

 

uploadgig.com

http://shrt10.com/uia14af
http://shrt10.com/GgnLkv

 

Watch IMPACT Wrestling Genesis online

 

Server 1

 

 

 

 

IMPACT Wrestling Genesis

 

 

 

 

Server-2

 

 

 

 

watch now

 

 

Uploaded By Site DX-TV.com

 

 

Complete name : iMPACT.Wrestling.2021.01.09.Genesis.1080p.WEB.h264-HEEL.mp4
Format : MPEG-4
Format profile : Base Media
Codec ID : isom
File size : 8.68 GiB
Duration : 2 h 45 min
Overall bit rate mode : Variable
Overall bit rate : 7 499 kb/s
Writing application : Lavf58.32.104

IMPACT Wrestling Genesis

Video
ID : 1
Format : AVC
Format/Info : Advanced Video
Duration : 2 h 45 min
Bit rate : 7 299 kb/s
Nominal bit rate : 8 500 kb/s
Width : 1 920 pixels
Height : 1 080 pixels
Display aspect ratio : 16:9
Frame rate mode : Constant
Frame rate : 29.970 FPS
Color space : YUV
Chroma subsampling : 4:2:0
Bit depth : 8 bits
Scan type : Progressive
Bits/(Pixel*Frame) : 0.117
Stream size : 8.45 GiB (97%)

IMPACT Wrestling Genesis

Audio
ID : 2
Format : AAC LC
Format/Info : Advanced Audio
Codec ID : mp4a-40-2
Duration : 2 h 45 min
Bit rate mode : Variable
Bit rate : 192 kb/s
Channel(s) : 2 channels
Channel layout : L R
Sampling rate : 48.0 kHz
Frame rate : 46.875 FPS
Compression mode : Lossy
Stream size : 225 MiB (3%)
Default : Yes
Alternate group : 1

Complete name : iMPACT.Wrestling.2021.01.09.Genesis.WEB.h264-HEEL.mp4
Format : MPEG-4
Format profile : Base Media
Codec ID : isom
File size : 3.88 GiB
Duration : 2 h 45 min
Overall bit rate : 3 349 kb/s
Writing application : Lavf58.32.104

IMPACT Wrestling Genesis

Video
ID : 1
Format : AVC
Format/Info : Advanced Video
Duration : 2 h 45 min
Bit rate : 3 151 kb/s
Nominal bit rate : 3 500 kb/s
Width : 960 pixels
Height : 540 pixels
Display aspect ratio : 16:9
Frame rate mode : Constant
Frame rate : 29.970 FPS
Color space : YUV
Chroma subsampling : 4:2:0
Bit depth : 8 bits
Scan type : Progressive
Bits/(Pixel*Frame) : 0.203
Stream size : 3.65 GiB (94%)

Audio
ID : 2
Format : AAC LC
Format/Info : Advanced Audio
Codec ID : mp4a-40-2
Duration : 2 h 45 min
Bit rate mode : Constant
Bit rate : 192 kb/s
Channel(s) : 2 channels
Channel layout : L R
Sampling rate : 48.0 kHz
Frame rate : 46.875 FPS
Compression mode : Lossy
Stream size : 225 MiB (6%)
Default : Yes
Alternate group : 1

 

 

https://dx-tv.com/

Leave a Reply

Your email address will not be published. Required fields are marked *

This site uses Akismet to reduce spam. Learn how your comment data is processed.