iMPACT Wrestling Full Show Replay 2021 03 16 1080p

iMPACT Wrestling Full Show Replay 2021 03 16 540p/ 1080p WEB HEEL DX-TV

iMPACT Wrestling Full Show Replay

 iMPACT Wrestling Full Show Replay

 

 

 

Download Links with High Speed


 

Dopapk

 

 

Show Links

 

http://shrt10.com/DGzmb1O9
http://shrt10.com/e04JWYh2N

 

[collapse]

 

 

Nitroflare

 

 

Show Links

 

http://shrt10.com/4GJjjSCYy
http://shrt10.com/afIrky5

 

[collapse]

 

 

Rapidgator

 

 

Show Links

 

http://shrt10.com/sFPQb
http://shrt10.com/QQsS773Ux

 

[collapse]

 

 

Uploaded

 

 

Show Links

 

http://shrt10.com/CY2B3
http://shrt10.com/q5f4Hhqq

 

[collapse]

 

 

Watch online

 

Server 1

 

 

 

 

watch now

 

 

 

 

Server-2

 

 

 

 

watch now

 

 

 

|Server-3

 

 

 

 

iMPACT Wrestling

 

 

Uploaded By Site DX-TV.com

 

 

Show Info This Show

 

 

Complete name : iMPACT.Wrestling.2021.03.16.WEB.h264-HEEL.mp4
Format : MPEG-4
Format profile : Base Media
Codec ID : isom
File size : 2.02 GiB
Duration : 1 h 26 min
Overall bit rate : 3 361 kb/s

iMPACT Wrestling

Video
ID : 1
Format : AVC
Duration : 1 h 26 min
Bit rate : 3 163 kb/s
Nominal bit rate : 3 500 kb/s
Width : 960 pixels
Height : 540 pixels
Display aspect ratio : 16:9
Frame rate mode : Constant
Frame rate : 29.970 (30000/1001) FPS
Color space : YUV
Chroma subsampling : 4:2:0
Bit depth : 8 bits
Scan type : Progressive
Bits/(Pixel*Frame) : 0.204
Stream size : 1.90 GiB (94%)

Audio
ID : 2
Format : AAC LC
Format/Info : Advanced Audio
Codec ID : mp4a-40-2
Duration : 1 h 26 min
Bit rate mode : Constant
Bit rate : 192 kb/s
Channel(s) : 2 channels
Channel layout : L R
Sampling rate : 48.0 kHz
Frame rate : 46.875 FPS
Compression mode : Lossy
Stream size : 117 MiB
Default : Yes
Alternate group : 1

iMPACT Wrestling

Complete name : iMPACT.Wrestling.2021.03.16.1080p.WEB.h264-HEEL.mp4
Format : MPEG-4
Format profile : Base Media
Codec ID : isom
File size : 4.80 GiB
Duration : 1 h 26 min
Overall bit rate mode : Variable
Overall bit rate : 7 989 kb/s

Video
ID : 1
Format : AVC
Duration : 1 h 26 min
Bit rate : 7 789 kb/s
Nominal bit rate : 8 500 kb/s
Width : 1 920 pixels
Height : 1 080 pixels
Display aspect ratio : 16:9
Frame rate mode : Constant
Frame rate : 29.970 (30000/1001) FPS
Color space : YUV
Chroma subsampling : 4:2:0
Bit depth : 8 bits
Scan type : Progressive
Bits/(Pixel*Frame) : 0.125
Stream size : 4.68 GiB

iMPACT Wrestling

Audio
ID : 2
Format : AAC LC
Format/Info : Advanced Audio
Codec ID : mp4a-40-2
Duration : 1 h 26 min
Bit rate mode : Variable
Bit rate : 192 kb/s
Maximum bit rate : 205 kb/s
Channel(s) : 2 channels
Channel layout : L R
Sampling rate : 48.0 kHz
Frame rate : 46.875 FPS
Compression mode : Lossy
Stream size : 117 MiB
Default : Yes
Alternate group : 1

 

 

[collapse]

 

 

https://dx-tv.com/

You May Also Like