iMPACT Wrestling Free Online 2020 11 24 720p DX-TV

Watch iMPACT Wrestling Free Online 2020 11 24 720p HDTV NWCHD DX-TV

iMPACT Wrestling Free Online

 

 iMPACT Wrestling Free Online

 

[su_expand more_text=”Show More Info” less_text=”Close all Info” height=”30″ text_color=”#000000″ link_color=”#e25f8b” link_style=”button” more_icon=”icon: arrow-down” less_icon=”icon: arrow-up”]

 

iMPACT Wrestling Free Online

Complete name : iMPACT.Wrestling.2020.11.24.HDTV.x264-NWCHD.mp4
Format : MPEG-4
Format profile : Base Media
Codec ID : isom 
File size : 978 MiB
Duration : 1 h 26 min
Overall bit rate : 1 589 kb/s
application : Lavf58.27

 Wrestling Free Online

Video
ID : 1
Format : AVC
Duration : 1 h 26 min
Bit rate : 1 400 kb/s
Width : 704 pixels
Height : 400 pixels
Display aspect ratio : 16:9
rate mode : Variable
Color space : YUV
Chroma sampling : 4:2:0
Bit depth : 8 bits
Scan type : Progressive
Bits/(Pixel*Frame) : 0.166
Stream size : 854 MiB (87%)
Color primaries : BT.709
Transfer : BT.709
Matrix : BT.709
Codec box : avc

iMPACT Wrestling Free Online

Audio
ID : 2
Format : AAC LC
Format/Info : Advanced Audio
Codec ID : mp4a-40-2
Duration : 1 h 26 min
Bit rate mode : Constant
Bit rate : 192 kb/s
Channel(s) : 2 channels
Channel layout : L R
Sampling rate : 48.0 kHz
Frame rate : 46.875 FPS 
Compression mode : Lossy
Stream size : 118 MiB (12%)
Title : Stereo
Language : English
Default : Yes
Alternate group : 1

 

Watch iMPACT Wrestling Free Online

At Turning Point, The Good Brothers became IMPACT Tag Team Champions for the very first time when they defeated The North in a hard-fought contest. Last week on IMPACT!,

Ethan Page demanded a rematch for his team but the only way The Good Brothers are going to agree to one is if Page can defeat “a phenomenal opponent” of their choosing.

While we were left with more questions than answers, one thing is for certain – Ethan Page will have a fight on his hands this Tuesday night!

 Wrestling Free Online

Wrestler’s Court returns! Johnny Swinger has become the prime suspect in the shooting of John E Bravo .

after The Deaners discovered a gun in his fanny pack at Turning Point. 

Detective Dreamer believes he has the case cracked but Swinger continues to deny the allegations.

What will the fate of Johnny Swinger be?

Find out on Wrestler’s Court: The Boys vs Johnny Swinger this Tuesday on IMPACT!

[/su_expand]

 

 

Watch online

 

 

Server 1

 

 

 

 

 

iMPACT Wrestling Free Online 

Server-2

 

 

 

 

 

 

Uploaded By Site DX-TV.com

 

https://dx-tv.com/njpw-the-new-beginning-in-sapporo-day-2-2020-eng/

 

 

Download Free Links with normal and high Speed [ more 14 hosts ]  

 

[su_expand more_text=”Show Hosts Info” less_text=”Close all Info” height=”30″ text_color=”#000000″ link_color=”#e25f8b” link_style=”button” more_icon=”icon: arrow-down” less_icon=”icon: arrow-up”]

iMPACT Wrestling Free Online

 

hexupload.net – clicknupload.co – www.multiup.org

– uptobox.com – anonfiles.com – userscloud.com –

dropapk.to alfafile.net – ddownload.com – rockfile.co

– 1fichier.com – filedown.org – katfile.com – filerio.in

 

 

[/su_expand]

 

400p

 

http://shrt10.com/X3CEW
http://shrt10.com/71Ouandk7
http://shrt10.com/YbU17QYY
http://shrt10.com/PytfeEz
http://shrt10.com/dUUz6jtO
http://shrt10.com/yPJ0Xyrez
http://shrt10.com/WN2XRe0Wm
http://shrt10.com/Tj58PvEX

 

 

 

Download Links with premium High Speed   

iMPACT Wrestling Free Online

 

 

 

dropapk.to

http://shrt10.com/Ll2a8Ce
http://shrt10.com/hvHNjpg

 

 

nitroflare.com

http://shrt10.com/vXH6w4bKR
http://shrt10.com/mKQF5t0do

 

 

rapidgator.net

http://shrt10.com/VZIgddi
http://shrt10.com/BtZGEdmu

 

 

uploaded.net

http://shrt10.com/Z1Pxug6P
http://shrt10.com/5Fc4i

 

 

uploadgig.com

http://shrt10.com/EOohN14s
http://shrt10.com/WJcMiDHu

 

 

Leave a Reply

Your email address will not be published. Required fields are marked *

This site uses Akismet to reduce spam. Learn how your comment data is processed.