iMPACT Wrestling Emergence 2021 08 20 1080p Free

iMPACT Wrestling Emergence 2021 08 20 720p/ 1080p Online Free Replay DX-TV

Contents show

iMPACT Wrestling Emergence 2021

 iMPACT Wrestling Emergence 2021

 

 

 

Download Links with premium High Speed
 

 


 

Dopapk

 

 

Show Links

 

 

http://shrt10.com/smrZFd
http://shrt10.com/1PKiApmYp
http://shrt10.com/h3oaI1i

 

[collapse]

 

 

 

 

Nitroflare

 

 

Show Links

 

 

http://shrt10.com/kTmAwy
http://shrt10.com/pdi8I
http://shrt10.com/Ez03HGnNc

 

 

[collapse]

 

 

Rapidgator

 

 

Show Links

 

 

http://shrt10.com/FPYkI
http://shrt10.com/cRLuX3o
http://shrt10.com/Awsu4P5j

 

 

[collapse]

 

 

 

Uploaded
 

 

Show Links

 

 

http://shrt10.com/XJY4zWmQd
http://shrt10.com/26jiW1DXu

 

 

[collapse]

 

 

 

 

 

Watch online

 

Server 1

 

 

 

 

iMPACT Wrestling Emergence 2021

 

 

 

 

Server-2

 

 

 

 

watch now

 

 

 

|Server-3

 

 

 

 

watch now

 

 

Uploaded By Site DX-TV.com

 

 

Show Info This Show

iMPACT Wrestling Emergence 2021

 

Complete name : iMPACT.Wrestling.2021.08.20.Emergence.1080p.WEB.h264-HEEL.mp4
Format : MPEG-4
Format profile : Base Media
Codec ID : isom
File size : 8.97 GiB
Duration : 2 h 43 min
Overall bit rate mode : Variable
Overall bit rate : 7 872 kb/s

Video
ID : 1
Format : AVC
Format/Info : Advanced Video
Duration : 2 h 43 min
Bit rate : 7 672 kb/s
Nominal bit rate : 8 500 kb/s
Width : 1 920 pixels
Height : 1 080 pixels
Display aspect ratio : 16:9
Frame rate mode : Constant
Frame rate : 29.970 (30000/1001) FPS
Color space : YUV
Chroma subsampling : 4:2:0
Bit depth : 8 bits
Scan type : Progressive
Bits/(Pixel*Frame) : 0.123
Stream size : 8.74 GiB (97%)

iMPACT Wrestling Emergence 2021

Audio
ID : 2
Format : AAC LC
Format/Info : Advanced Audio
Codec ID : mp4a-40-2
Duration : 2 h 43 min
Bit rate mode : Variable
Bit rate : 192 kb/s
Channel(s) : 2 channels
Channel layout : L R
Sampling rate : 48.0 kHz
Frame rate : 46.875 FPS (1024 SPF)
Compression mode : Lossy
Stream size : 221 MiB (2%)
Default : Yes
Alternate group : 1

Complete name : iMPACT.Wrestling.2021.08.20.Emergence.Hi.WEB.h264-HEEL.mp4
Format : MPEG-4
Format profile : Base Media
Codec ID : isom
File size : 3.81 GiB
Duration : 2 h 43 min
Overall bit rate : 3 346 kb/s

iMPACT Wrestling Emergence 2021

Video
ID : 1
Format : AVC
Format/Info : Advanced Video
Duration : 2 h 43 min
Bit rate : 3 148 kb/s
Nominal bit rate : 3 500 kb/s
Width : 960 pixels
Height : 540 pixels
Display aspect ratio : 16:9
Frame rate mode : Constant
Frame rate : 29.970 (30000/1001) FPS
Color space : YUV
Chroma subsampling : 4:2:0
Bit depth : 8 bits
Scan type : Progressive
Bits/(Pixel*Frame) : 0.203
Stream size : 3.59 GiB (94%)

Audio
ID : 2
Format : AAC LC
Format/Info : Advanced Audio
Codec ID : mp4a-40-2
Duration : 2 h 43 min
Bit rate mode : Constant
Bit rate : 192 kb/s
Channel(s) : 2 channels
Channel layout : L R
Sampling rate : 48.0 kHz
Frame rate : 46.875 FPS (1024 SPF)
Compression mode : Lossy
Stream size : 221 MiB (6%)
Default : Yes
Alternate group : 1

iMPACT Wrestling Emergence 2021

Complete name : iMPACT.Wrestling.2021.08.20.Emergence.Lo.WEB.h264-HEEL.mp4
Format : MPEG-4
Format profile : Base Media
Codec ID : isom
File size : 1.59 GiB
Duration : 2 h 43 min
Overall bit rate : 1 398 kb/s

Video
ID : 1
Format : AVC
Format/Info : Advanced Video
Duration : 2 h 43 min
Bit rate : 1 200 kb/s
Width : 640 pixels
Height : 360 pixels
Display aspect ratio : 16:9
Frame rate mode : Constant
Frame rate : 29.970 (30000/1001) FPS
Color space : YUV
Chroma subsampling : 4:2:0
Bit depth : 8 bits
Scan type : Progressive
Bits/(Pixel*Frame) : 0.174
Stream size : 1.37 GiB (86%)

iMPACT Wrestling Emergence 2021

Audio
ID : 2
Format : AAC LC
Format/Info : Advanced
Codec ID : mp4a-40-2
Duration : 2 h 43 min
Bit rate mode : Constant
Bit rate : 192 kb/s
Channel(s) : 2 channels
Channel layout : L R
Sampling rate : 48.0 kHz
Frame rate : 46.875 FPS (1024 SPF)
Compression mode : Lossy
Stream size : 221 MiB (14%)
Default : Yes
Alternate group : 1

iMPACT Wrestling Emergence 2021

 

Complete name : iMPACT.Wrestling.2021.08.20.Emergence.1080p.WEB.h264-HEEL.mp4
Format : MPEG-4
Format profile : Base Media
Codec ID : isom
File size : 8.97 GiB
Duration : 2 h 43 min
Overall bit rate mode : Variable
Overall bit rate : 7 872 kb/s

Video
ID : 1
Format : AVC
Format/Info : Advanced Video
Duration : 2 h 43 min
Bit rate : 7 672 kb/s
Nominal bit rate : 8 500 kb/s
Width : 1 920 pixels
Height : 1 080 pixels
Display aspect ratio : 16:9
Frame rate mode : Constant
Frame rate : 29.970 (30000/1001) FPS
Color space : YUV
Chroma subsampling : 4:2:0
Bit depth : 8 bits
Scan type : Progressive
Bits/(Pixel*Frame) : 0.123
Stream size : 8.74 GiB (97%)

iMPACT Wrestling Emergence 2021

Audio
ID : 2
Format : AAC LC
Format/Info : Advanced Audio
Codec ID : mp4a-40-2
Duration : 2 h 43 min
Bit rate mode : Variable
Bit rate : 192 kb/s
Channel(s) : 2 channels
Channel layout : L R
Sampling rate : 48.0 kHz
Frame rate : 46.875 FPS (1024 SPF)
Compression mode : Lossy
Stream size : 221 MiB (2%)
Default : Yes
Alternate group : 1

Complete name : iMPACT.Wrestling.2021.08.20.Emergence.Hi.WEB.h264-HEEL.mp4
Format : MPEG-4
Format profile : Base Media
Codec ID : isom
File size : 3.81 GiB
Duration : 2 h 43 min
Overall bit rate : 3 346 kb/s

iMPACT Wrestling Emergence 2021

Video
ID : 1
Format : AVC
Format/Info : Advanced Video
Duration : 2 h 43 min
Bit rate : 3 148 kb/s
Nominal bit rate : 3 500 kb/s
Width : 960 pixels
Height : 540 pixels
Display aspect ratio : 16:9
Frame rate mode : Constant
Frame rate : 29.970 (30000/1001) FPS
Color space : YUV
Chroma subsampling : 4:2:0
Bit depth : 8 bits
Scan type : Progressive
Bits/(Pixel*Frame) : 0.203
Stream size : 3.59 GiB (94%)

Audio
ID : 2
Format : AAC LC
Format/Info : Advanced Audio
Codec ID : mp4a-40-2
Duration : 2 h 43 min
Bit rate mode : Constant
Bit rate : 192 kb/s
Channel(s) : 2 channels
Channel layout : L R
Sampling rate : 48.0 kHz
Frame rate : 46.875 FPS (1024 SPF)
Compression mode : Lossy
Stream size : 221 MiB (6%)
Default : Yes
Alternate group : 1

iMPACT Wrestling Emergence 2021

Complete name : iMPACT.Wrestling.2021.08.20.Emergence.Lo.WEB.h264-HEEL.mp4
Format : MPEG-4
Format profile : Base Media
Codec ID : isom
File size : 1.59 GiB
Duration : 2 h 43 min
Overall bit rate : 1 398 kb/s

Video
ID : 1
Format : AVC
Format/Info : Advanced Video
Duration : 2 h 43 min
Bit rate : 1 200 kb/s
Width : 640 pixels
Height : 360 pixels
Display aspect ratio : 16:9
Frame rate mode : Constant
Frame rate : 29.970 (30000/1001) FPS
Color space : YUV
Chroma subsampling : 4:2:0
Bit depth : 8 bits
Scan type : Progressive
Bits/(Pixel*Frame) : 0.174
Stream size : 1.37 GiB (86%)

iMPACT Wrestling Emergence 2021

Audio
ID : 2
Format : AAC LC
Format/Info : Advanced
Codec ID : mp4a-40-2
Duration : 2 h 43 min
Bit rate mode : Constant
Bit rate : 192 kb/s
Channel(s) : 2 channels
Channel layout : L R
Sampling rate : 48.0 kHz
Frame rate : 46.875 FPS (1024 SPF)
Compression mode : Lossy
Stream size : 221 MiB (14%)
Default : Yes
Alternate group : 1

iMPACT Wrestling Emergence 2021

 

Complete name : iMPACT.Wrestling.2021.08.20.Emergence.1080p.WEB.h264-HEEL.mp4
Format : MPEG-4
Format profile : Base Media
Codec ID : isom
File size : 8.97 GiB
Duration : 2 h 43 min
Overall bit rate mode : Variable
Overall bit rate : 7 872 kb/s

Video
ID : 1
Format : AVC
Format/Info : Advanced Video
Duration : 2 h 43 min
Bit rate : 7 672 kb/s
Nominal bit rate : 8 500 kb/s
Width : 1 920 pixels
Height : 1 080 pixels
Display aspect ratio : 16:9
Frame rate mode : Constant
Frame rate : 29.970 (30000/1001) FPS
Color space : YUV
Chroma subsampling : 4:2:0
Bit depth : 8 bits
Scan type : Progressive
Bits/(Pixel*Frame) : 0.123
Stream size : 8.74 GiB (97%)

iMPACT Wrestling Emergence 2021

Audio
ID : 2
Format : AAC LC
Format/Info : Advanced Audio
Codec ID : mp4a-40-2
Duration : 2 h 43 min
Bit rate mode : Variable
Bit rate : 192 kb/s
Channel(s) : 2 channels
Channel layout : L R
Sampling rate : 48.0 kHz
Frame rate : 46.875 FPS (1024 SPF)
Compression mode : Lossy
Stream size : 221 MiB (2%)
Default : Yes
Alternate group : 1

Complete name : iMPACT.Wrestling.2021.08.20.Emergence.Hi.WEB.h264-HEEL.mp4
Format : MPEG-4
Format profile : Base Media
Codec ID : isom
File size : 3.81 GiB
Duration : 2 h 43 min
Overall bit rate : 3 346 kb/s

iMPACT Wrestling Emergence 2021

Video
ID : 1
Format : AVC
Format/Info : Advanced Video
Duration : 2 h 43 min
Bit rate : 3 148 kb/s
Nominal bit rate : 3 500 kb/s
Width : 960 pixels
Height : 540 pixels
Display aspect ratio : 16:9
Frame rate mode : Constant
Frame rate : 29.970 (30000/1001) FPS
Color space : YUV
Chroma subsampling : 4:2:0
Bit depth : 8 bits
Scan type : Progressive
Bits/(Pixel*Frame) : 0.203
Stream size : 3.59 GiB (94%)

Audio
ID : 2
Format : AAC LC
Format/Info : Advanced Audio
Codec ID : mp4a-40-2
Duration : 2 h 43 min
Bit rate mode : Constant
Bit rate : 192 kb/s
Channel(s) : 2 channels
Channel layout : L R
Sampling rate : 48.0 kHz
Frame rate : 46.875 FPS (1024 SPF)
Compression mode : Lossy
Stream size : 221 MiB (6%)
Default : Yes
Alternate group : 1

iMPACT Wrestling Emergence 2021

Complete name : iMPACT.Wrestling.2021.08.20.Emergence.Lo.WEB.h264-HEEL.mp4
Format : MPEG-4
Format profile : Base Media
Codec ID : isom
File size : 1.59 GiB
Duration : 2 h 43 min
Overall bit rate : 1 398 kb/s

Video
ID : 1
Format : AVC
Format/Info : Advanced Video
Duration : 2 h 43 min
Bit rate : 1 200 kb/s
Width : 640 pixels
Height : 360 pixels
Display aspect ratio : 16:9
Frame rate mode : Constant
Frame rate : 29.970 (30000/1001) FPS
Color space : YUV
Chroma subsampling : 4:2:0
Bit depth : 8 bits
Scan type : Progressive
Bits/(Pixel*Frame) : 0.174
Stream size : 1.37 GiB (86%)

iMPACT Wrestling Emergence 2021

Audio
ID : 2
Format : AAC LC
Format/Info : Advanced
Codec ID : mp4a-40-2
Duration : 2 h 43 min
Bit rate mode : Constant
Bit rate : 192 kb/s
Channel(s) : 2 channels
Channel layout : L R
Sampling rate : 48.0 kHz
Frame rate : 46.875 FPS (1024 SPF)
Compression mode : Lossy
Stream size : 221 MiB (14%)
Default : Yes
Alternate group : 1

iMPACT Wrestling Emergence 2021

 

Complete name : iMPACT.Wrestling.2021.08.20.Emergence.1080p.WEB.h264-HEEL.mp4
Format : MPEG-4
Format profile : Base Media
Codec ID : isom
File size : 8.97 GiB
Duration : 2 h 43 min
Overall bit rate mode : Variable
Overall bit rate : 7 872 kb/s

Video
ID : 1
Format : AVC
Format/Info : Advanced Video
Duration : 2 h 43 min
Bit rate : 7 672 kb/s
Nominal bit rate : 8 500 kb/s
Width : 1 920 pixels
Height : 1 080 pixels
Display aspect ratio : 16:9
Frame rate mode : Constant
Frame rate : 29.970 (30000/1001) FPS
Color space : YUV
Chroma subsampling : 4:2:0
Bit depth : 8 bits
Scan type : Progressive
Bits/(Pixel*Frame) : 0.123
Stream size : 8.74 GiB (97%)

iMPACT Wrestling Emergence 2021

Audio
ID : 2
Format : AAC LC
Format/Info : Advanced Audio
Codec ID : mp4a-40-2
Duration : 2 h 43 min
Bit rate mode : Variable
Bit rate : 192 kb/s
Channel(s) : 2 channels
Channel layout : L R
Sampling rate : 48.0 kHz
Frame rate : 46.875 FPS (1024 SPF)
Compression mode : Lossy
Stream size : 221 MiB (2%)
Default : Yes
Alternate group : 1

Complete name : iMPACT.Wrestling.2021.08.20.Emergence.Hi.WEB.h264-HEEL.mp4
Format : MPEG-4
Format profile : Base Media
Codec ID : isom
File size : 3.81 GiB
Duration : 2 h 43 min
Overall bit rate : 3 346 kb/s

iMPACT Wrestling Emergence 2021

Video
ID : 1
Format : AVC
Format/Info : Advanced Video
Duration : 2 h 43 min
Bit rate : 3 148 kb/s
Nominal bit rate : 3 500 kb/s
Width : 960 pixels
Height : 540 pixels
Display aspect ratio : 16:9
Frame rate mode : Constant
Frame rate : 29.970 (30000/1001) FPS
Color space : YUV
Chroma subsampling : 4:2:0
Bit depth : 8 bits
Scan type : Progressive
Bits/(Pixel*Frame) : 0.203
Stream size : 3.59 GiB (94%)

Audio
ID : 2
Format : AAC LC
Format/Info : Advanced Audio
Codec ID : mp4a-40-2
Duration : 2 h 43 min
Bit rate mode : Constant
Bit rate : 192 kb/s
Channel(s) : 2 channels
Channel layout : L R
Sampling rate : 48.0 kHz
Frame rate : 46.875 FPS (1024 SPF)
Compression mode : Lossy
Stream size : 221 MiB (6%)
Default : Yes
Alternate group : 1

iMPACT Wrestling Emergence 2021

Complete name : iMPACT.Wrestling.2021.08.20.Emergence.Lo.WEB.h264-HEEL.mp4
Format : MPEG-4
Format profile : Base Media
Codec ID : isom
File size : 1.59 GiB
Duration : 2 h 43 min
Overall bit rate : 1 398 kb/s

Video
ID : 1
Format : AVC
Format/Info : Advanced Video
Duration : 2 h 43 min
Bit rate : 1 200 kb/s
Width : 640 pixels
Height : 360 pixels
Display aspect ratio : 16:9
Frame rate mode : Constant
Frame rate : 29.970 (30000/1001) FPS
Color space : YUV
Chroma subsampling : 4:2:0
Bit depth : 8 bits
Scan type : Progressive
Bits/(Pixel*Frame) : 0.174
Stream size : 1.37 GiB (86%)

iMPACT Wrestling Emergence 2021

Audio
ID : 2
Format : AAC LC
Format/Info : Advanced
Codec ID : mp4a-40-2
Duration : 2 h 43 min
Bit rate mode : Constant
Bit rate : 192 kb/s
Channel(s) : 2 channels
Channel layout : L R
Sampling rate : 48.0 kHz
Frame rate : 46.875 FPS (1024 SPF)
Compression mode : Lossy
Stream size : 221 MiB (14%)
Default : Yes
Alternate group : 1

iMPACT Wrestling Emergence 2021

 

Complete name : iMPACT.Wrestling.2021.08.20.Emergence.1080p.WEB.h264-HEEL.mp4
Format : MPEG-4
Format profile : Base Media
Codec ID : isom
File size : 8.97 GiB
Duration : 2 h 43 min
Overall bit rate mode : Variable
Overall bit rate : 7 872 kb/s

Video
ID : 1
Format : AVC
Format/Info : Advanced Video
Duration : 2 h 43 min
Bit rate : 7 672 kb/s
Nominal bit rate : 8 500 kb/s
Width : 1 920 pixels
Height : 1 080 pixels
Display aspect ratio : 16:9
Frame rate mode : Constant
Frame rate : 29.970 (30000/1001) FPS
Color space : YUV
Chroma subsampling : 4:2:0
Bit depth : 8 bits
Scan type : Progressive
Bits/(Pixel*Frame) : 0.123
Stream size : 8.74 GiB (97%)

iMPACT Wrestling Emergence 2021

Audio
ID : 2
Format : AAC LC
Format/Info : Advanced Audio
Codec ID : mp4a-40-2
Duration : 2 h 43 min
Bit rate mode : Variable
Bit rate : 192 kb/s
Channel(s) : 2 channels
Channel layout : L R
Sampling rate : 48.0 kHz
Frame rate : 46.875 FPS (1024 SPF)
Compression mode : Lossy
Stream size : 221 MiB (2%)
Default : Yes
Alternate group : 1

Complete name : iMPACT.Wrestling.2021.08.20.Emergence.Hi.WEB.h264-HEEL.mp4
Format : MPEG-4
Format profile : Base Media
Codec ID : isom
File size : 3.81 GiB
Duration : 2 h 43 min
Overall bit rate : 3 346 kb/s

iMPACT Wrestling Emergence 2021

Video
ID : 1
Format : AVC
Format/Info : Advanced Video
Duration : 2 h 43 min
Bit rate : 3 148 kb/s
Nominal bit rate : 3 500 kb/s
Width : 960 pixels
Height : 540 pixels
Display aspect ratio : 16:9
Frame rate mode : Constant
Frame rate : 29.970 (30000/1001) FPS
Color space : YUV
Chroma subsampling : 4:2:0
Bit depth : 8 bits
Scan type : Progressive
Bits/(Pixel*Frame) : 0.203
Stream size : 3.59 GiB (94%)

Audio
ID : 2
Format : AAC LC
Format/Info : Advanced Audio
Codec ID : mp4a-40-2
Duration : 2 h 43 min
Bit rate mode : Constant
Bit rate : 192 kb/s
Channel(s) : 2 channels
Channel layout : L R
Sampling rate : 48.0 kHz
Frame rate : 46.875 FPS (1024 SPF)
Compression mode : Lossy
Stream size : 221 MiB (6%)
Default : Yes
Alternate group : 1

iMPACT Wrestling Emergence 2021

Complete name : iMPACT.Wrestling.2021.08.20.Emergence.Lo.WEB.h264-HEEL.mp4
Format : MPEG-4
Format profile : Base Media
Codec ID : isom
File size : 1.59 GiB
Duration : 2 h 43 min
Overall bit rate : 1 398 kb/s

Video
ID : 1
Format : AVC
Format/Info : Advanced Video
Duration : 2 h 43 min
Bit rate : 1 200 kb/s
Width : 640 pixels
Height : 360 pixels
Display aspect ratio : 16:9
Frame rate mode : Constant
Frame rate : 29.970 (30000/1001) FPS
Color space : YUV
Chroma subsampling : 4:2:0
Bit depth : 8 bits
Scan type : Progressive
Bits/(Pixel*Frame) : 0.174
Stream size : 1.37 GiB (86%)

iMPACT Wrestling Emergence 2021

Audio
ID : 2
Format : AAC LC
Format/Info : Advanced
Codec ID : mp4a-40-2
Duration : 2 h 43 min
Bit rate mode : Constant
Bit rate : 192 kb/s
Channel(s) : 2 channels
Channel layout : L R
Sampling rate : 48.0 kHz
Frame rate : 46.875 FPS (1024 SPF)
Compression mode : Lossy
Stream size : 221 MiB (14%)
Default : Yes
Alternate group : 1

iMPACT Wrestling Emergence 2021

 

Complete name : iMPACT.Wrestling.2021.08.20.Emergence.1080p.WEB.h264-HEEL.mp4
Format : MPEG-4
Format profile : Base Media
Codec ID : isom
File size : 8.97 GiB
Duration : 2 h 43 min
Overall bit rate mode : Variable
Overall bit rate : 7 872 kb/s

Video
ID : 1
Format : AVC
Format/Info : Advanced Video
Duration : 2 h 43 min
Bit rate : 7 672 kb/s
Nominal bit rate : 8 500 kb/s
Width : 1 920 pixels
Height : 1 080 pixels
Display aspect ratio : 16:9
Frame rate mode : Constant
Frame rate : 29.970 (30000/1001) FPS
Color space : YUV
Chroma subsampling : 4:2:0
Bit depth : 8 bits
Scan type : Progressive
Bits/(Pixel*Frame) : 0.123
Stream size : 8.74 GiB (97%)

iMPACT Wrestling Emergence 2021

Audio
ID : 2
Format : AAC LC
Format/Info : Advanced Audio
Codec ID : mp4a-40-2
Duration : 2 h 43 min
Bit rate mode : Variable
Bit rate : 192 kb/s
Channel(s) : 2 channels
Channel layout : L R
Sampling rate : 48.0 kHz
Frame rate : 46.875 FPS (1024 SPF)
Compression mode : Lossy
Stream size : 221 MiB (2%)
Default : Yes
Alternate group : 1

Complete name : iMPACT.Wrestling.2021.08.20.Emergence.Hi.WEB.h264-HEEL.mp4
Format : MPEG-4
Format profile : Base Media
Codec ID : isom
File size : 3.81 GiB
Duration : 2 h 43 min
Overall bit rate : 3 346 kb/s

iMPACT Wrestling Emergence 2021

Video
ID : 1
Format : AVC
Format/Info : Advanced Video
Duration : 2 h 43 min
Bit rate : 3 148 kb/s
Nominal bit rate : 3 500 kb/s
Width : 960 pixels
Height : 540 pixels
Display aspect ratio : 16:9
Frame rate mode : Constant
Frame rate : 29.970 (30000/1001) FPS
Color space : YUV
Chroma subsampling : 4:2:0
Bit depth : 8 bits
Scan type : Progressive
Bits/(Pixel*Frame) : 0.203
Stream size : 3.59 GiB (94%)

Audio
ID : 2
Format : AAC LC
Format/Info : Advanced Audio
Codec ID : mp4a-40-2
Duration : 2 h 43 min
Bit rate mode : Constant
Bit rate : 192 kb/s
Channel(s) : 2 channels
Channel layout : L R
Sampling rate : 48.0 kHz
Frame rate : 46.875 FPS (1024 SPF)
Compression mode : Lossy
Stream size : 221 MiB (6%)
Default : Yes
Alternate group : 1

iMPACT Wrestling Emergence 2021

Complete name : iMPACT.Wrestling.2021.08.20.Emergence.Lo.WEB.h264-HEEL.mp4
Format : MPEG-4
Format profile : Base Media
Codec ID : isom
File size : 1.59 GiB
Duration : 2 h 43 min
Overall bit rate : 1 398 kb/s

Video
ID : 1
Format : AVC
Format/Info : Advanced Video
Duration : 2 h 43 min
Bit rate : 1 200 kb/s
Width : 640 pixels
Height : 360 pixels
Display aspect ratio : 16:9
Frame rate mode : Constant
Frame rate : 29.970 (30000/1001) FPS
Color space : YUV
Chroma subsampling : 4:2:0
Bit depth : 8 bits
Scan type : Progressive
Bits/(Pixel*Frame) : 0.174
Stream size : 1.37 GiB (86%)

iMPACT Wrestling Emergence 2021

Audio
ID : 2
Format : AAC LC
Format/Info : Advanced
Codec ID : mp4a-40-2
Duration : 2 h 43 min
Bit rate mode : Constant
Bit rate : 192 kb/s
Channel(s) : 2 channels
Channel layout : L R
Sampling rate : 48.0 kHz
Frame rate : 46.875 FPS (1024 SPF)
Compression mode : Lossy
Stream size : 221 MiB (14%)
Default : Yes
Alternate group : 1

iMPACT Wrestling Emergence 2021

 

Complete name : iMPACT.Wrestling.2021.08.20.Emergence.1080p.WEB.h264-HEEL.mp4
Format : MPEG-4
Format profile : Base Media
Codec ID : isom
File size : 8.97 GiB
Duration : 2 h 43 min
Overall bit rate mode : Variable
Overall bit rate : 7 872 kb/s

Video
ID : 1
Format : AVC
Format/Info : Advanced Video
Duration : 2 h 43 min
Bit rate : 7 672 kb/s
Nominal bit rate : 8 500 kb/s
Width : 1 920 pixels
Height : 1 080 pixels
Display aspect ratio : 16:9
Frame rate mode : Constant
Frame rate : 29.970 (30000/1001) FPS
Color space : YUV
Chroma subsampling : 4:2:0
Bit depth : 8 bits
Scan type : Progressive
Bits/(Pixel*Frame) : 0.123
Stream size : 8.74 GiB (97%)

iMPACT Wrestling Emergence 2021

Audio
ID : 2
Format : AAC LC
Format/Info : Advanced Audio
Codec ID : mp4a-40-2
Duration : 2 h 43 min
Bit rate mode : Variable
Bit rate : 192 kb/s
Channel(s) : 2 channels
Channel layout : L R
Sampling rate : 48.0 kHz
Frame rate : 46.875 FPS (1024 SPF)
Compression mode : Lossy
Stream size : 221 MiB (2%)
Default : Yes
Alternate group : 1

Complete name : iMPACT.Wrestling.2021.08.20.Emergence.Hi.WEB.h264-HEEL.mp4
Format : MPEG-4
Format profile : Base Media
Codec ID : isom
File size : 3.81 GiB
Duration : 2 h 43 min
Overall bit rate : 3 346 kb/s

iMPACT Wrestling Emergence 2021

Video
ID : 1
Format : AVC
Format/Info : Advanced Video
Duration : 2 h 43 min
Bit rate : 3 148 kb/s
Nominal bit rate : 3 500 kb/s
Width : 960 pixels
Height : 540 pixels
Display aspect ratio : 16:9
Frame rate mode : Constant
Frame rate : 29.970 (30000/1001) FPS
Color space : YUV
Chroma subsampling : 4:2:0
Bit depth : 8 bits
Scan type : Progressive
Bits/(Pixel*Frame) : 0.203
Stream size : 3.59 GiB (94%)

Audio
ID : 2
Format : AAC LC
Format/Info : Advanced Audio
Codec ID : mp4a-40-2
Duration : 2 h 43 min
Bit rate mode : Constant
Bit rate : 192 kb/s
Channel(s) : 2 channels
Channel layout : L R
Sampling rate : 48.0 kHz
Frame rate : 46.875 FPS (1024 SPF)
Compression mode : Lossy
Stream size : 221 MiB (6%)
Default : Yes
Alternate group : 1

iMPACT Wrestling Emergence 2021

Complete name : iMPACT.Wrestling.2021.08.20.Emergence.Lo.WEB.h264-HEEL.mp4
Format : MPEG-4
Format profile : Base Media
Codec ID : isom
File size : 1.59 GiB
Duration : 2 h 43 min
Overall bit rate : 1 398 kb/s

Video
ID : 1
Format : AVC
Format/Info : Advanced Video
Duration : 2 h 43 min
Bit rate : 1 200 kb/s
Width : 640 pixels
Height : 360 pixels
Display aspect ratio : 16:9
Frame rate mode : Constant
Frame rate : 29.970 (30000/1001) FPS
Color space : YUV
Chroma subsampling : 4:2:0
Bit depth : 8 bits
Scan type : Progressive
Bits/(Pixel*Frame) : 0.174
Stream size : 1.37 GiB (86%)

iMPACT Wrestling Emergence 2021

Audio
ID : 2
Format : AAC LC
Format/Info : Advanced
Codec ID : mp4a-40-2
Duration : 2 h 43 min
Bit rate mode : Constant
Bit rate : 192 kb/s
Channel(s) : 2 channels
Channel layout : L R
Sampling rate : 48.0 kHz
Frame rate : 46.875 FPS (1024 SPF)
Compression mode : Lossy
Stream size : 221 MiB (14%)
Default : Yes
Alternate group : 1

iMPACT Wrestling Emergence 2021

 

Complete name : iMPACT.Wrestling.2021.08.20.Emergence.1080p.WEB.h264-HEEL.mp4
Format : MPEG-4
Format profile : Base Media
Codec ID : isom
File size : 8.97 GiB
Duration : 2 h 43 min
Overall bit rate mode : Variable
Overall bit rate : 7 872 kb/s

Video
ID : 1
Format : AVC
Format/Info : Advanced Video
Duration : 2 h 43 min
Bit rate : 7 672 kb/s
Nominal bit rate : 8 500 kb/s
Width : 1 920 pixels
Height : 1 080 pixels
Display aspect ratio : 16:9
Frame rate mode : Constant
Frame rate : 29.970 (30000/1001) FPS
Color space : YUV
Chroma subsampling : 4:2:0
Bit depth : 8 bits
Scan type : Progressive
Bits/(Pixel*Frame) : 0.123
Stream size : 8.74 GiB (97%)

iMPACT Wrestling Emergence 2021

Audio
ID : 2
Format : AAC LC
Format/Info : Advanced Audio
Codec ID : mp4a-40-2
Duration : 2 h 43 min
Bit rate mode : Variable
Bit rate : 192 kb/s
Channel(s) : 2 channels
Channel layout : L R
Sampling rate : 48.0 kHz
Frame rate : 46.875 FPS (1024 SPF)
Compression mode : Lossy
Stream size : 221 MiB (2%)
Default : Yes
Alternate group : 1

Complete name : iMPACT.Wrestling.2021.08.20.Emergence.Hi.WEB.h264-HEEL.mp4
Format : MPEG-4
Format profile : Base Media
Codec ID : isom
File size : 3.81 GiB
Duration : 2 h 43 min
Overall bit rate : 3 346 kb/s

iMPACT Wrestling Emergence 2021

Video
ID : 1
Format : AVC
Format/Info : Advanced Video
Duration : 2 h 43 min
Bit rate : 3 148 kb/s
Nominal bit rate : 3 500 kb/s
Width : 960 pixels
Height : 540 pixels
Display aspect ratio : 16:9
Frame rate mode : Constant
Frame rate : 29.970 (30000/1001) FPS
Color space : YUV
Chroma subsampling : 4:2:0
Bit depth : 8 bits
Scan type : Progressive
Bits/(Pixel*Frame) : 0.203
Stream size : 3.59 GiB (94%)

Audio
ID : 2
Format : AAC LC
Format/Info : Advanced Audio
Codec ID : mp4a-40-2
Duration : 2 h 43 min
Bit rate mode : Constant
Bit rate : 192 kb/s
Channel(s) : 2 channels
Channel layout : L R
Sampling rate : 48.0 kHz
Frame rate : 46.875 FPS (1024 SPF)
Compression mode : Lossy
Stream size : 221 MiB (6%)
Default : Yes
Alternate group : 1

iMPACT Wrestling Emergence 2021

Complete name : iMPACT.Wrestling.2021.08.20.Emergence.Lo.WEB.h264-HEEL.mp4
Format : MPEG-4
Format profile : Base Media
Codec ID : isom
File size : 1.59 GiB
Duration : 2 h 43 min
Overall bit rate : 1 398 kb/s

Video
ID : 1
Format : AVC
Format/Info : Advanced Video
Duration : 2 h 43 min
Bit rate : 1 200 kb/s
Width : 640 pixels
Height : 360 pixels
Display aspect ratio : 16:9
Frame rate mode : Constant
Frame rate : 29.970 (30000/1001) FPS
Color space : YUV
Chroma subsampling : 4:2:0
Bit depth : 8 bits
Scan type : Progressive
Bits/(Pixel*Frame) : 0.174
Stream size : 1.37 GiB (86%)

iMPACT Wrestling Emergence 2021

Audio
ID : 2
Format : AAC LC
Format/Info : Advanced
Codec ID : mp4a-40-2
Duration : 2 h 43 min
Bit rate mode : Constant
Bit rate : 192 kb/s
Channel(s) : 2 channels
Channel layout : L R
Sampling rate : 48.0 kHz
Frame rate : 46.875 FPS (1024 SPF)
Compression mode : Lossy
Stream size : 221 MiB (14%)
Default : Yes
Alternate group : 1

iMPACT Wrestling Emergence 2021

 

Complete name : iMPACT.Wrestling.2021.08.20.Emergence.1080p.WEB.h264-HEEL.mp4
Format : MPEG-4
Format profile : Base Media
Codec ID : isom
File size : 8.97 GiB
Duration : 2 h 43 min
Overall bit rate mode : Variable
Overall bit rate : 7 872 kb/s

Video
ID : 1
Format : AVC
Format/Info : Advanced Video
Duration : 2 h 43 min
Bit rate : 7 672 kb/s
Nominal bit rate : 8 500 kb/s
Width : 1 920 pixels
Height : 1 080 pixels
Display aspect ratio : 16:9
Frame rate mode : Constant
Frame rate : 29.970 (30000/1001) FPS
Color space : YUV
Chroma subsampling : 4:2:0
Bit depth : 8 bits
Scan type : Progressive
Bits/(Pixel*Frame) : 0.123
Stream size : 8.74 GiB (97%)

iMPACT Wrestling Emergence 2021

Audio
ID : 2
Format : AAC LC
Format/Info : Advanced Audio
Codec ID : mp4a-40-2
Duration : 2 h 43 min
Bit rate mode : Variable
Bit rate : 192 kb/s
Channel(s) : 2 channels
Channel layout : L R
Sampling rate : 48.0 kHz
Frame rate : 46.875 FPS (1024 SPF)
Compression mode : Lossy
Stream size : 221 MiB (2%)
Default : Yes
Alternate group : 1

Complete name : iMPACT.Wrestling.2021.08.20.Emergence.Hi.WEB.h264-HEEL.mp4
Format : MPEG-4
Format profile : Base Media
Codec ID : isom
File size : 3.81 GiB
Duration : 2 h 43 min
Overall bit rate : 3 346 kb/s

iMPACT Wrestling Emergence 2021

Video
ID : 1
Format : AVC
Format/Info : Advanced Video
Duration : 2 h 43 min
Bit rate : 3 148 kb/s
Nominal bit rate : 3 500 kb/s
Width : 960 pixels
Height : 540 pixels
Display aspect ratio : 16:9
Frame rate mode : Constant
Frame rate : 29.970 (30000/1001) FPS
Color space : YUV
Chroma subsampling : 4:2:0
Bit depth : 8 bits
Scan type : Progressive
Bits/(Pixel*Frame) : 0.203
Stream size : 3.59 GiB (94%)

Audio
ID : 2
Format : AAC LC
Format/Info : Advanced Audio
Codec ID : mp4a-40-2
Duration : 2 h 43 min
Bit rate mode : Constant
Bit rate : 192 kb/s
Channel(s) : 2 channels
Channel layout : L R
Sampling rate : 48.0 kHz
Frame rate : 46.875 FPS (1024 SPF)
Compression mode : Lossy
Stream size : 221 MiB (6%)
Default : Yes
Alternate group : 1

iMPACT Wrestling Emergence 2021

Complete name : iMPACT.Wrestling.2021.08.20.Emergence.Lo.WEB.h264-HEEL.mp4
Format : MPEG-4
Format profile : Base Media
Codec ID : isom
File size : 1.59 GiB
Duration : 2 h 43 min
Overall bit rate : 1 398 kb/s

Video
ID : 1
Format : AVC
Format/Info : Advanced Video
Duration : 2 h 43 min
Bit rate : 1 200 kb/s
Width : 640 pixels
Height : 360 pixels
Display aspect ratio : 16:9
Frame rate mode : Constant
Frame rate : 29.970 (30000/1001) FPS
Color space : YUV
Chroma subsampling : 4:2:0
Bit depth : 8 bits
Scan type : Progressive
Bits/(Pixel*Frame) : 0.174
Stream size : 1.37 GiB (86%)

iMPACT Wrestling Emergence 2021

Audio
ID : 2
Format : AAC LC
Format/Info : Advanced
Codec ID : mp4a-40-2
Duration : 2 h 43 min
Bit rate mode : Constant
Bit rate : 192 kb/s
Channel(s) : 2 channels
Channel layout : L R
Sampling rate : 48.0 kHz
Frame rate : 46.875 FPS (1024 SPF)
Compression mode : Lossy
Stream size : 221 MiB (14%)
Default : Yes
Alternate group : 1

iMPACT Wrestling Emergence 2021

 

 

[collapse]

 

 

https://dx-tv.com/

Leave a Reply

Your email address will not be published. Required fields are marked *

This site uses Akismet to reduce spam. Learn how your comment data is processed.