iMPACT Wrestling Against All Odds 2021 Free Replay

iMPACT Wrestling Against All Odds 2021 Free Replay Online 2021 06 12 DX-TV

Contents show

iMPACT Wrestling Against All Odds 2021 Free

 iMPACT Wrestling Against All Odds 2021 Free

 

 

 

Download Links with High Speed


 

Dopapk

 

 

Show Links

 

http://shrt10.com/fPuusB
http://shrt10.com/y2vSS

 

[collapse]

 

 

Nitroflare

 

 

Show Links

 

http://shrt10.com/3ss3Ki0
http://shrt10.com/qTRTI

 

[collapse]

 

 

Rapidgator

 

 

Show Links

 

http://shrt10.com/sVtU8
http://shrt10.com/zvLKEy

 

[collapse]

 

 

Uploaded

 

 

Show Links

 

http://shrt10.com/gM7JDJsPC

 

[collapse]

 

 

Watch online

 

Server 1

 

 

 

 

iMPACT Wrestling Against All Odds 2021 Free

 

 

 

 

Server-2

 

 

 

 

watch now

 

 

 

|Server-4

 

 

 

 

watch now

 

 

Uploaded By Site DX-TV.com

 

 

Show Info This Show

 

iMPACT Wrestling Against All Odds 2021 Free

Complete name : iMPACT.Wrestling.2021.06.12.Against.All.Odds.WEB.h264-HEEL.mp4
Format : MPEG-4
Format profile : Base Media
Codec ID : isom
File size : 1.64 GiB
Duration : 2 h 47 min
Overall bit rate : 1 397 kb/s

Video
ID : 1
Format : AVC
Format/Info : Advanced Video
Duration : 2 h 47 min
Bit rate : 1 200 kb/s
Width : 640 pixels
Height : 360 pixels
Display aspect ratio : 16:9
Frame rate mode : Constant
Frame rate : 29.970 (30000/1001) FPS
Color space : YUV
Chroma subsampling : 4:2:0
Bit depth : 8 bits
Scan type : Progressive
Bits/(Pixel*Frame) : 0.174
Stream size : 1.40 GiB (86%)

iMPACT Wrestling Against All Odds 2021 Free

Audio
ID : 2
Format : AAC LC
Format/Info : Advanced Audio
Codec ID : mp4a-40-2
Duration : 2 h 47 min
Bit rate mode : Constant
Bit rate : 192 kb/s
Channel(s) : 2 channels
Channel layout : L R
Sampling rate : 48.0 kHz
Frame rate : 46.875 FPS
Compression mode : Lossy
Stream size : 227 MiB (14%)
Default : Yes
Alternate group : 1

Complete name : iMPACT.Wrestling.2021.06.12.Against.All.Odds.1080p.WEB.h264-HEEL.mp4
Format : MPEG-4
Format profile : Base Media
Codec ID : isom
File size : 9.34 GiB
Duration : 2 h 47 min
Overall bit rate mode : Variable
Overall bit rate : 7 976 kb/s

iMPACT Wrestling Against All Odds 2021 Free

Video
ID : 1
Format : AVC
Format/Info : Advanced Video
Duration : 2 h 47 min
Bit rate : 7 776 kb/s
Nominal bit rate : 8 500 kb/s
Width : 1 920 pixels
Height : 1 080 pixels
Display aspect ratio : 16:9
Frame rate mode : Constant
Frame rate : 29.970 (30000/1001) FPS
Color space : YUV
Chroma subsampling : 4:2:0
Bit depth : 8 bits
Scan type : Progressive
Bits/(Pixel*Frame) : 0.125
Stream size : 9.10 GiB (97%)

iMPACT Wrestling Against All Odds 2021 Free

Audio
ID : 2
Format : AAC LC
Format/Info : Advanced Audio
Codec ID : mp4a-40-2
Duration : 2 h 47 min
Bit rate mode : Variable
Bit rate : 192 kb/s
Channel(s) : 2 channels
Channel layout : L R
Sampling rate : 48.0 kHz
Frame rate : 46.875 FPS (1024 SPF)
Compression mode : Lossy
Stream size : 227 MiB (2%)
Default : Yes
Alternate group : 1

iMPACT Wrestling Against All Odds 2021 Free

 

Complete name : iMPACT.Wrestling.2021.06.12.Against.All.Odds.WEB.h264-HEEL.mp4
Format : MPEG-4
Format profile : Base Media
Codec ID : isom
File size : 1.64 GiB
Duration : 2 h 47 min
Overall bit rate : 1 397 kb/s

Video
ID : 1
Format : AVC
Format/Info : Advanced Video
Duration : 2 h 47 min
Bit rate : 1 200 kb/s
Width : 640 pixels
Height : 360 pixels
Display aspect ratio : 16:9
Frame rate mode : Constant
Frame rate : 29.970 (30000/1001) FPS
Color space : YUV
Chroma subsampling : 4:2:0
Bit depth : 8 bits
Scan type : Progressive
Bits/(Pixel*Frame) : 0.174
Stream size : 1.40 GiB (86%)

iMPACT Wrestling Against All Odds 2021 Free

Audio
ID : 2
Format : AAC LC
Format/Info : Advanced Audio
Codec ID : mp4a-40-2
Duration : 2 h 47 min
Bit rate mode : Constant
Bit rate : 192 kb/s
Channel(s) : 2 channels
Channel layout : L R
Sampling rate : 48.0 kHz
Frame rate : 46.875 FPS
Compression mode : Lossy
Stream size : 227 MiB (14%)
Default : Yes
Alternate group : 1

Complete name : iMPACT.Wrestling.2021.06.12.Against.All.Odds.1080p.WEB.h264-HEEL.mp4
Format : MPEG-4
Format profile : Base Media
Codec ID : isom
File size : 9.34 GiB
Duration : 2 h 47 min
Overall bit rate mode : Variable
Overall bit rate : 7 976 kb/s

iMPACT Wrestling Against All Odds 2021 Free

Video
ID : 1
Format : AVC
Format/Info : Advanced Video
Duration : 2 h 47 min
Bit rate : 7 776 kb/s
Nominal bit rate : 8 500 kb/s
Width : 1 920 pixels
Height : 1 080 pixels
Display aspect ratio : 16:9
Frame rate mode : Constant
Frame rate : 29.970 (30000/1001) FPS
Color space : YUV
Chroma subsampling : 4:2:0
Bit depth : 8 bits
Scan type : Progressive
Bits/(Pixel*Frame) : 0.125
Stream size : 9.10 GiB (97%)

iMPACT Wrestling Against All Odds 2021 Free

Audio
ID : 2
Format : AAC LC
Format/Info : Advanced Audio
Codec ID : mp4a-40-2
Duration : 2 h 47 min
Bit rate mode : Variable
Bit rate : 192 kb/s
Channel(s) : 2 channels
Channel layout : L R
Sampling rate : 48.0 kHz
Frame rate : 46.875 FPS (1024 SPF)
Compression mode : Lossy
Stream size : 227 MiB (2%)
Default : Yes
Alternate group : 1

i

Complete name : iMPACT.Wrestling.2021.06.12.Against.All.Odds.WEB.h264-HEEL.mp4
Format : MPEG-4
Format profile : Base Media
Codec ID : isom
File size : 1.64 GiB
Duration : 2 h 47 min
Overall bit rate : 1 397 kb/s

Video
ID : 1
Format : AVC
Format/Info : Advanced Video
Duration : 2 h 47 min
Bit rate : 1 200 kb/s
Width : 640 pixels
Height : 360 pixels
Display aspect ratio : 16:9
Frame rate mode : Constant
Frame rate : 29.970 (30000/1001) FPS
Color space : YUV
Chroma subsampling : 4:2:0
Bit depth : 8 bits
Scan type : Progressive
Bits/(Pixel*Frame) : 0.174
Stream size : 1.40 GiB (86%)

iMPACT Wrestling Against All Odds 2021 Free

Audio
ID : 2
Format : AAC LC
Format/Info : Advanced Audio
Codec ID : mp4a-40-2
Duration : 2 h 47 min
Bit rate mode : Constant
Bit rate : 192 kb/s
Channel(s) : 2 channels
Channel layout : L R
Sampling rate : 48.0 kHz
Frame rate : 46.875 FPS
Compression mode : Lossy
Stream size : 227 MiB (14%)
Default : Yes
Alternate group : 1

Complete name : iMPACT.Wrestling.2021.06.12.Against.All.Odds.1080p.WEB.h264-HEEL.mp4
Format : MPEG-4
Format profile : Base Media
Codec ID : isom
File size : 9.34 GiB
Duration : 2 h 47 min
Overall bit rate mode : Variable
Overall bit rate : 7 976 kb/s

iMPACT Wrestling Against All Odds 2021 Free

Video
ID : 1
Format : AVC
Format/Info : Advanced Video
Duration : 2 h 47 min
Bit rate : 7 776 kb/s
Nominal bit rate : 8 500 kb/s
Width : 1 920 pixels
Height : 1 080 pixels
Display aspect ratio : 16:9
Frame rate mode : Constant
Frame rate : 29.970 (30000/1001) FPS
Color space : YUV
Chroma subsampling : 4:2:0
Bit depth : 8 bits
Scan type : Progressive
Bits/(Pixel*Frame) : 0.125
Stream size : 9.10 GiB (97%)

iMPACT Wrestling Against All Odds 2021 Free

Audio
ID : 2
Format : AAC LC
Format/Info : Advanced Audio
Codec ID : mp4a-40-2
Duration : 2 h 47 min
Bit rate mode : Variable
Bit rate : 192 kb/s
Channel(s) : 2 channels
Channel layout : L R
Sampling rate : 48.0 kHz
Frame rate : 46.875 FPS (1024 SPF)
Compression mode : Lossy
Stream size : 227 MiB (2%)
Default : Yes
Alternate group : 1

iMPACT Wrestling Against All Odds 2021 Free

 

 

Complete name : iMPACT.Wrestling.2021.06.12.Against.All.Odds.WEB.h264-HEEL.mp4
Format : MPEG-4
Format profile : Base Media
Codec ID : isom
File size : 1.64 GiB
Duration : 2 h 47 min
Overall bit rate : 1 397 kb/s

Video
ID : 1
Format : AVC
Format/Info : Advanced Video
Duration : 2 h 47 min
Bit rate : 1 200 kb/s
Width : 640 pixels
Height : 360 pixels
Display aspect ratio : 16:9
Frame rate mode : Constant
Frame rate : 29.970 (30000/1001) FPS
Color space : YUV
Chroma subsampling : 4:2:0
Bit depth : 8 bits
Scan type : Progressive
Bits/(Pixel*Frame) : 0.174
Stream size : 1.40 GiB (86%)

iMPACT Wrestling Against All Odds 2021 Free

Audio
ID : 2
Format : AAC LC
Format/Info : Advanced Audio
Codec ID : mp4a-40-2
Duration : 2 h 47 min
Bit rate mode : Constant
Bit rate : 192 kb/s
Channel(s) : 2 channels
Channel layout : L R
Sampling rate : 48.0 kHz
Frame rate : 46.875 FPS
Compression mode : Lossy
Stream size : 227 MiB (14%)
Default : Yes
Alternate group : 1

Complete name : iMPACT.Wrestling.2021.06.12.Against.All.Odds.1080p.WEB.h264-HEEL.mp4
Format : MPEG-4
Format profile : Base Media
Codec ID : isom
File size : 9.34 GiB
Duration : 2 h 47 min
Overall bit rate mode : Variable
Overall bit rate : 7 976 kb/s

iMPACT Wrestling Against All Odds 2021 Free

Video
ID : 1
Format : AVC
Format/Info : Advanced Video
Duration : 2 h 47 min
Bit rate : 7 776 kb/s
Nominal bit rate : 8 500 kb/s
Width : 1 920 pixels
Height : 1 080 pixels
Display aspect ratio : 16:9
Frame rate mode : Constant
Frame rate : 29.970 (30000/1001) FPS
Color space : YUV
Chroma subsampling : 4:2:0
Bit depth : 8 bits
Scan type : Progressive
Bits/(Pixel*Frame) : 0.125
Stream size : 9.10 GiB (97%)

iMPACT Wrestling Against All Odds 2021 Free

Audio
ID : 2
Format : AAC LC
Format/Info : Advanced Audio
Codec ID : mp4a-40-2
Duration : 2 h 47 min
Bit rate mode : Variable
Bit rate : 192 kb/s
Channel(s) : 2 channels
Channel layout : L R
Sampling rate : 48.0 kHz
Frame rate : 46.875 FPS (1024 SPF)
Compression mode : Lossy
Stream size : 227 MiB (2%)
Default : Yes
Alternate group : 1

iMPACT Wrestling Against All Odds 2021 Free

 

 

Complete name : iMPACT.Wrestling.2021.06.12.Against.All.Odds.WEB.h264-HEEL.mp4
Format : MPEG-4
Format profile : Base Media
Codec ID : isom
File size : 1.64 GiB
Duration : 2 h 47 min
Overall bit rate : 1 397 kb/s

Video
ID : 1
Format : AVC
Format/Info : Advanced Video
Duration : 2 h 47 min
Bit rate : 1 200 kb/s
Width : 640 pixels
Height : 360 pixels
Display aspect ratio : 16:9
Frame rate mode : Constant
Frame rate : 29.970 (30000/1001) FPS
Color space : YUV
Chroma subsampling : 4:2:0
Bit depth : 8 bits
Scan type : Progressive
Bits/(Pixel*Frame) : 0.174
Stream size : 1.40 GiB (86%)

iMPACT Wrestling Against All Odds 2021 Free

Audio
ID : 2
Format : AAC LC
Format/Info : Advanced Audio
Codec ID : mp4a-40-2
Duration : 2 h 47 min
Bit rate mode : Constant
Bit rate : 192 kb/s
Channel(s) : 2 channels
Channel layout : L R
Sampling rate : 48.0 kHz
Frame rate : 46.875 FPS
Compression mode : Lossy
Stream size : 227 MiB (14%)
Default : Yes
Alternate group : 1

Complete name : iMPACT.Wrestling.2021.06.12.Against.All.Odds.1080p.WEB.h264-HEEL.mp4
Format : MPEG-4
Format profile : Base Media
Codec ID : isom
File size : 9.34 GiB
Duration : 2 h 47 min
Overall bit rate mode : Variable
Overall bit rate : 7 976 kb/s

iMPACT Wrestling Against All Odds 2021 Free

Video
ID : 1
Format : AVC
Format/Info : Advanced Video
Duration : 2 h 47 min
Bit rate : 7 776 kb/s
Nominal bit rate : 8 500 kb/s
Width : 1 920 pixels
Height : 1 080 pixels
Display aspect ratio : 16:9
Frame rate mode : Constant
Frame rate : 29.970 (30000/1001) FPS
Color space : YUV
Chroma subsampling : 4:2:0
Bit depth : 8 bits
Scan type : Progressive
Bits/(Pixel*Frame) : 0.125
Stream size : 9.10 GiB (97%)

iMPACT Wrestling Against All Odds 2021 Free

Audio
ID : 2
Format : AAC LC
Format/Info : Advanced Audio
Codec ID : mp4a-40-2
Duration : 2 h 47 min
Bit rate mode : Variable
Bit rate : 192 kb/s
Channel(s) : 2 channels
Channel layout : L R
Sampling rate : 48.0 kHz
Frame rate : 46.875 FPS (1024 SPF)
Compression mode : Lossy
Stream size : 227 MiB (2%)
Default : Yes
Alternate group : 1

iMPACT Wrestling Against All Odds 2021 Free

 

 

Complete name : iMPACT.Wrestling.2021.06.12.Against.All.Odds.WEB.h264-HEEL.mp4
Format : MPEG-4
Format profile : Base Media
Codec ID : isom
File size : 1.64 GiB
Duration : 2 h 47 min
Overall bit rate : 1 397 kb/s

Video
ID : 1
Format : AVC
Format/Info : Advanced Video
Duration : 2 h 47 min
Bit rate : 1 200 kb/s
Width : 640 pixels
Height : 360 pixels
Display aspect ratio : 16:9
Frame rate mode : Constant
Frame rate : 29.970 (30000/1001) FPS
Color space : YUV
Chroma subsampling : 4:2:0
Bit depth : 8 bits
Scan type : Progressive
Bits/(Pixel*Frame) : 0.174
Stream size : 1.40 GiB (86%)

iMPACT Wrestling Against All Odds 2021 Free

Audio
ID : 2
Format : AAC LC
Format/Info : Advanced Audio
Codec ID : mp4a-40-2
Duration : 2 h 47 min
Bit rate mode : Constant
Bit rate : 192 kb/s
Channel(s) : 2 channels
Channel layout : L R
Sampling rate : 48.0 kHz
Frame rate : 46.875 FPS
Compression mode : Lossy
Stream size : 227 MiB (14%)
Default : Yes
Alternate group : 1

Complete name : iMPACT.Wrestling.2021.06.12.Against.All.Odds.1080p.WEB.h264-HEEL.mp4
Format : MPEG-4
Format profile : Base Media
Codec ID : isom
File size : 9.34 GiB
Duration : 2 h 47 min
Overall bit rate mode : Variable
Overall bit rate : 7 976 kb/s

iMPACT Wrestling Against All Odds 2021 Free

Video
ID : 1
Format : AVC
Format/Info : Advanced Video
Duration : 2 h 47 min
Bit rate : 7 776 kb/s
Nominal bit rate : 8 500 kb/s
Width : 1 920 pixels
Height : 1 080 pixels
Display aspect ratio : 16:9
Frame rate mode : Constant
Frame rate : 29.970 (30000/1001) FPS
Color space : YUV
Chroma subsampling : 4:2:0
Bit depth : 8 bits
Scan type : Progressive
Bits/(Pixel*Frame) : 0.125
Stream size : 9.10 GiB (97%)

iMPACT Wrestling Against All Odds 2021 Free

Audio
ID : 2
Format : AAC LC
Format/Info : Advanced Audio
Codec ID : mp4a-40-2
Duration : 2 h 47 min
Bit rate mode : Variable
Bit rate : 192 kb/s
Channel(s) : 2 channels
Channel layout : L R
Sampling rate : 48.0 kHz
Frame rate : 46.875 FPS (1024 SPF)
Compression mode : Lossy
Stream size : 227 MiB (2%)
Default : Yes
Alternate group : 1

iMPACT Wrestling Against All Odds 2021 Free

 

 

Complete name : iMPACT.Wrestling.2021.06.12.Against.All.Odds.WEB.h264-HEEL.mp4
Format : MPEG-4
Format profile : Base Media
Codec ID : isom
File size : 1.64 GiB
Duration : 2 h 47 min
Overall bit rate : 1 397 kb/s

Video
ID : 1
Format : AVC
Format/Info : Advanced Video
Duration : 2 h 47 min
Bit rate : 1 200 kb/s
Width : 640 pixels
Height : 360 pixels
Display aspect ratio : 16:9
Frame rate mode : Constant
Frame rate : 29.970 (30000/1001) FPS
Color space : YUV
Chroma subsampling : 4:2:0
Bit depth : 8 bits
Scan type : Progressive
Bits/(Pixel*Frame) : 0.174
Stream size : 1.40 GiB (86%)

iMPACT Wrestling Against All Odds 2021 Free

Audio
ID : 2
Format : AAC LC
Format/Info : Advanced Audio
Codec ID : mp4a-40-2
Duration : 2 h 47 min
Bit rate mode : Constant
Bit rate : 192 kb/s
Channel(s) : 2 channels
Channel layout : L R
Sampling rate : 48.0 kHz
Frame rate : 46.875 FPS
Compression mode : Lossy
Stream size : 227 MiB (14%)
Default : Yes
Alternate group : 1

Complete name : iMPACT.Wrestling.2021.06.12.Against.All.Odds.1080p.WEB.h264-HEEL.mp4
Format : MPEG-4
Format profile : Base Media
Codec ID : isom
File size : 9.34 GiB
Duration : 2 h 47 min
Overall bit rate mode : Variable
Overall bit rate : 7 976 kb/s

iMPACT Wrestling Against All Odds 2021 Free

Video
ID : 1
Format : AVC
Format/Info : Advanced Video
Duration : 2 h 47 min
Bit rate : 7 776 kb/s
Nominal bit rate : 8 500 kb/s
Width : 1 920 pixels
Height : 1 080 pixels
Display aspect ratio : 16:9
Frame rate mode : Constant
Frame rate : 29.970 (30000/1001) FPS
Color space : YUV
Chroma subsampling : 4:2:0
Bit depth : 8 bits
Scan type : Progressive
Bits/(Pixel*Frame) : 0.125
Stream size : 9.10 GiB (97%)

iMPACT Wrestling Against All Odds 2021 Free

Audio
ID : 2
Format : AAC LC
Format/Info : Advanced Audio
Codec ID : mp4a-40-2
Duration : 2 h 47 min
Bit rate mode : Variable
Bit rate : 192 kb/s
Channel(s) : 2 channels
Channel layout : L R
Sampling rate : 48.0 kHz
Frame rate : 46.875 FPS (1024 SPF)
Compression mode : Lossy
Stream size : 227 MiB (2%)
Default : Yes
Alternate group : 1

iMPACT Wrestling Against All Odds 2021 Free

 

 

Complete name : iMPACT.Wrestling.2021.06.12.Against.All.Odds.WEB.h264-HEEL.mp4
Format : MPEG-4
Format profile : Base Media
Codec ID : isom
File size : 1.64 GiB
Duration : 2 h 47 min
Overall bit rate : 1 397 kb/s

Video
ID : 1
Format : AVC
Format/Info : Advanced Video
Duration : 2 h 47 min
Bit rate : 1 200 kb/s
Width : 640 pixels
Height : 360 pixels
Display aspect ratio : 16:9
Frame rate mode : Constant
Frame rate : 29.970 (30000/1001) FPS
Color space : YUV
Chroma subsampling : 4:2:0
Bit depth : 8 bits
Scan type : Progressive
Bits/(Pixel*Frame) : 0.174
Stream size : 1.40 GiB (86%)

iMPACT Wrestling Against All Odds 2021 Free

Audio
ID : 2
Format : AAC LC
Format/Info : Advanced Audio
Codec ID : mp4a-40-2
Duration : 2 h 47 min
Bit rate mode : Constant
Bit rate : 192 kb/s
Channel(s) : 2 channels
Channel layout : L R
Sampling rate : 48.0 kHz
Frame rate : 46.875 FPS
Compression mode : Lossy
Stream size : 227 MiB (14%)
Default : Yes
Alternate group : 1

Complete name : iMPACT.Wrestling.2021.06.12.Against.All.Odds.1080p.WEB.h264-HEEL.mp4
Format : MPEG-4
Format profile : Base Media
Codec ID : isom
File size : 9.34 GiB
Duration : 2 h 47 min
Overall bit rate mode : Variable
Overall bit rate : 7 976 kb/s

iMPACT Wrestling Against All Odds 2021 Free

Video
ID : 1
Format : AVC
Format/Info : Advanced Video
Duration : 2 h 47 min
Bit rate : 7 776 kb/s
Nominal bit rate : 8 500 kb/s
Width : 1 920 pixels
Height : 1 080 pixels
Display aspect ratio : 16:9
Frame rate mode : Constant
Frame rate : 29.970 (30000/1001) FPS
Color space : YUV
Chroma subsampling : 4:2:0
Bit depth : 8 bits
Scan type : Progressive
Bits/(Pixel*Frame) : 0.125
Stream size : 9.10 GiB (97%)

iMPACT Wrestling Against All Odds 2021 Free

Audio
ID : 2
Format : AAC LC
Format/Info : Advanced Audio
Codec ID : mp4a-40-2
Duration : 2 h 47 min
Bit rate mode : Variable
Bit rate : 192 kb/s
Channel(s) : 2 channels
Channel layout : L R
Sampling rate : 48.0 kHz
Frame rate : 46.875 FPS (1024 SPF)
Compression mode : Lossy
Stream size : 227 MiB (2%)
Default : Yes
Alternate group : 1

iMPACT Wrestling Against All Odds 2021 Free

 

 

Complete name : iMPACT.Wrestling.2021.06.12.Against.All.Odds.WEB.h264-HEEL.mp4
Format : MPEG-4
Format profile : Base Media
Codec ID : isom
File size : 1.64 GiB
Duration : 2 h 47 min
Overall bit rate : 1 397 kb/s

Video
ID : 1
Format : AVC
Format/Info : Advanced Video
Duration : 2 h 47 min
Bit rate : 1 200 kb/s
Width : 640 pixels
Height : 360 pixels
Display aspect ratio : 16:9
Frame rate mode : Constant
Frame rate : 29.970 (30000/1001) FPS
Color space : YUV
Chroma subsampling : 4:2:0
Bit depth : 8 bits
Scan type : Progressive
Bits/(Pixel*Frame) : 0.174
Stream size : 1.40 GiB (86%)

iMPACT Wrestling Against All Odds 2021 Free

Audio
ID : 2
Format : AAC LC
Format/Info : Advanced Audio
Codec ID : mp4a-40-2
Duration : 2 h 47 min
Bit rate mode : Constant
Bit rate : 192 kb/s
Channel(s) : 2 channels
Channel layout : L R
Sampling rate : 48.0 kHz
Frame rate : 46.875 FPS
Compression mode : Lossy
Stream size : 227 MiB (14%)
Default : Yes
Alternate group : 1

Complete name : iMPACT.Wrestling.2021.06.12.Against.All.Odds.1080p.WEB.h264-HEEL.mp4
Format : MPEG-4
Format profile : Base Media
Codec ID : isom
File size : 9.34 GiB
Duration : 2 h 47 min
Overall bit rate mode : Variable
Overall bit rate : 7 976 kb/s

iMPACT Wrestling Against All Odds 2021 Free

Video
ID : 1
Format : AVC
Format/Info : Advanced Video
Duration : 2 h 47 min
Bit rate : 7 776 kb/s
Nominal bit rate : 8 500 kb/s
Width : 1 920 pixels
Height : 1 080 pixels
Display aspect ratio : 16:9
Frame rate mode : Constant
Frame rate : 29.970 (30000/1001) FPS
Color space : YUV
Chroma subsampling : 4:2:0
Bit depth : 8 bits
Scan type : Progressive
Bits/(Pixel*Frame) : 0.125
Stream size : 9.10 GiB (97%)

iMPACT Wrestling Against All Odds 2021 Free

Audio
ID : 2
Format : AAC LC
Format/Info : Advanced Audio
Codec ID : mp4a-40-2
Duration : 2 h 47 min
Bit rate mode : Variable
Bit rate : 192 kb/s
Channel(s) : 2 channels
Channel layout : L R
Sampling rate : 48.0 kHz
Frame rate : 46.875 FPS (1024 SPF)
Compression mode : Lossy
Stream size : 227 MiB (2%)
Default : Yes
Alternate group : 1

iMPACT Wrestling Against All Odds 2021 Free

 

 

Complete name : iMPACT.Wrestling.2021.06.12.Against.All.Odds.WEB.h264-HEEL.mp4
Format : MPEG-4
Format profile : Base Media
Codec ID : isom
File size : 1.64 GiB
Duration : 2 h 47 min
Overall bit rate : 1 397 kb/s

Video
ID : 1
Format : AVC
Format/Info : Advanced Video
Duration : 2 h 47 min
Bit rate : 1 200 kb/s
Width : 640 pixels
Height : 360 pixels
Display aspect ratio : 16:9
Frame rate mode : Constant
Frame rate : 29.970 (30000/1001) FPS
Color space : YUV
Chroma subsampling : 4:2:0
Bit depth : 8 bits
Scan type : Progressive
Bits/(Pixel*Frame) : 0.174
Stream size : 1.40 GiB (86%)

iMPACT Wrestling Against All Odds 2021 Free

Audio
ID : 2
Format : AAC LC
Format/Info : Advanced Audio
Codec ID : mp4a-40-2
Duration : 2 h 47 min
Bit rate mode : Constant
Bit rate : 192 kb/s
Channel(s) : 2 channels
Channel layout : L R
Sampling rate : 48.0 kHz
Frame rate : 46.875 FPS
Compression mode : Lossy
Stream size : 227 MiB (14%)
Default : Yes
Alternate group : 1

Complete name : iMPACT.Wrestling.2021.06.12.Against.All.Odds.1080p.WEB.h264-HEEL.mp4
Format : MPEG-4
Format profile : Base Media
Codec ID : isom
File size : 9.34 GiB
Duration : 2 h 47 min
Overall bit rate mode : Variable
Overall bit rate : 7 976 kb/s

iMPACT Wrestling Against All Odds 2021 Free

Video
ID : 1
Format : AVC
Format/Info : Advanced Video
Duration : 2 h 47 min
Bit rate : 7 776 kb/s
Nominal bit rate : 8 500 kb/s
Width : 1 920 pixels
Height : 1 080 pixels
Display aspect ratio : 16:9
Frame rate mode : Constant
Frame rate : 29.970 (30000/1001) FPS
Color space : YUV
Chroma subsampling : 4:2:0
Bit depth : 8 bits
Scan type : Progressive
Bits/(Pixel*Frame) : 0.125
Stream size : 9.10 GiB (97%)

iMPACT Wrestling Against All Odds 2021 Free

Audio
ID : 2
Format : AAC LC
Format/Info : Advanced Audio
Codec ID : mp4a-40-2
Duration : 2 h 47 min
Bit rate mode : Variable
Bit rate : 192 kb/s
Channel(s) : 2 channels
Channel layout : L R
Sampling rate : 48.0 kHz
Frame rate : 46.875 FPS (1024 SPF)
Compression mode : Lossy
Stream size : 227 MiB (2%)
Default : Yes
Alternate group : 1

iMPACT Wrestling Against All Odds 2021 Free

 

 

Complete name : iMPACT.Wrestling.2021.06.12.Against.All.Odds.WEB.h264-HEEL.mp4
Format : MPEG-4
Format profile : Base Media
Codec ID : isom
File size : 1.64 GiB
Duration : 2 h 47 min
Overall bit rate : 1 397 kb/s

Video
ID : 1
Format : AVC
Format/Info : Advanced Video
Duration : 2 h 47 min
Bit rate : 1 200 kb/s
Width : 640 pixels
Height : 360 pixels
Display aspect ratio : 16:9
Frame rate mode : Constant
Frame rate : 29.970 (30000/1001) FPS
Color space : YUV
Chroma subsampling : 4:2:0
Bit depth : 8 bits
Scan type : Progressive
Bits/(Pixel*Frame) : 0.174
Stream size : 1.40 GiB (86%)

iMPACT Wrestling Against All Odds 2021 Free

Audio
ID : 2
Format : AAC LC
Format/Info : Advanced Audio
Codec ID : mp4a-40-2
Duration : 2 h 47 min
Bit rate mode : Constant
Bit rate : 192 kb/s
Channel(s) : 2 channels
Channel layout : L R
Sampling rate : 48.0 kHz
Frame rate : 46.875 FPS
Compression mode : Lossy
Stream size : 227 MiB (14%)
Default : Yes
Alternate group : 1

Complete name : iMPACT.Wrestling.2021.06.12.Against.All.Odds.1080p.WEB.h264-HEEL.mp4
Format : MPEG-4
Format profile : Base Media
Codec ID : isom
File size : 9.34 GiB
Duration : 2 h 47 min
Overall bit rate mode : Variable
Overall bit rate : 7 976 kb/s

iMPACT Wrestling Against All Odds 2021 Free

Video
ID : 1
Format : AVC
Format/Info : Advanced Video
Duration : 2 h 47 min
Bit rate : 7 776 kb/s
Nominal bit rate : 8 500 kb/s
Width : 1 920 pixels
Height : 1 080 pixels
Display aspect ratio : 16:9
Frame rate mode : Constant
Frame rate : 29.970 (30000/1001) FPS
Color space : YUV
Chroma subsampling : 4:2:0
Bit depth : 8 bits
Scan type : Progressive
Bits/(Pixel*Frame) : 0.125
Stream size : 9.10 GiB (97%)

iMPACT Wrestling Against All Odds 2021 Free

Audio
ID : 2
Format : AAC LC
Format/Info : Advanced Audio
Codec ID : mp4a-40-2
Duration : 2 h 47 min
Bit rate mode : Variable
Bit rate : 192 kb/s
Channel(s) : 2 channels
Channel layout : L R
Sampling rate : 48.0 kHz
Frame rate : 46.875 FPS (1024 SPF)
Compression mode : Lossy
Stream size : 227 MiB (2%)
Default : Yes
Alternate group : 1

iMPACT Wrestling Against All Odds 2021 Free

 

 

Complete name : iMPACT.Wrestling.2021.06.12.Against.All.Odds.WEB.h264-HEEL.mp4
Format : MPEG-4
Format profile : Base Media
Codec ID : isom
File size : 1.64 GiB
Duration : 2 h 47 min
Overall bit rate : 1 397 kb/s

Video
ID : 1
Format : AVC
Format/Info : Advanced Video
Duration : 2 h 47 min
Bit rate : 1 200 kb/s
Width : 640 pixels
Height : 360 pixels
Display aspect ratio : 16:9
Frame rate mode : Constant
Frame rate : 29.970 (30000/1001) FPS
Color space : YUV
Chroma subsampling : 4:2:0
Bit depth : 8 bits
Scan type : Progressive
Bits/(Pixel*Frame) : 0.174
Stream size : 1.40 GiB (86%)

iMPACT Wrestling Against All Odds 2021 Free

Audio
ID : 2
Format : AAC LC
Format/Info : Advanced Audio
Codec ID : mp4a-40-2
Duration : 2 h 47 min
Bit rate mode : Constant
Bit rate : 192 kb/s
Channel(s) : 2 channels
Channel layout : L R
Sampling rate : 48.0 kHz
Frame rate : 46.875 FPS
Compression mode : Lossy
Stream size : 227 MiB (14%)
Default : Yes
Alternate group : 1

Complete name : iMPACT.Wrestling.2021.06.12.Against.All.Odds.1080p.WEB.h264-HEEL.mp4
Format : MPEG-4
Format profile : Base Media
Codec ID : isom
File size : 9.34 GiB
Duration : 2 h 47 min
Overall bit rate mode : Variable
Overall bit rate : 7 976 kb/s

iMPACT Wrestling Against All Odds 2021 Free

Video
ID : 1
Format : AVC
Format/Info : Advanced Video
Duration : 2 h 47 min
Bit rate : 7 776 kb/s
Nominal bit rate : 8 500 kb/s
Width : 1 920 pixels
Height : 1 080 pixels
Display aspect ratio : 16:9
Frame rate mode : Constant
Frame rate : 29.970 (30000/1001) FPS
Color space : YUV
Chroma subsampling : 4:2:0
Bit depth : 8 bits
Scan type : Progressive
Bits/(Pixel*Frame) : 0.125
Stream size : 9.10 GiB (97%)

iMPACT Wrestling Against All Odds 2021 Free

Audio
ID : 2
Format : AAC LC
Format/Info : Advanced Audio
Codec ID : mp4a-40-2
Duration : 2 h 47 min
Bit rate mode : Variable
Bit rate : 192 kb/s
Channel(s) : 2 channels
Channel layout : L R
Sampling rate : 48.0 kHz
Frame rate : 46.875 FPS (1024 SPF)
Compression mode : Lossy
Stream size : 227 MiB (2%)
Default : Yes
Alternate group : 1

iMPACT Wrestling Against All Odds 2021 Free

 

 

 

MPACT Wrestling Against All Odds 2021 Free

 

 

 

 

 

 

 

[collapse]

 

 

https://dx-tv.com/

Leave a Reply

Your email address will not be published. Required fields are marked *

This site uses Akismet to reduce spam. Learn how your comment data is processed.