iMPACT Wrestling 21 07 2020 720p Full Show Free

Watch iMPACT Wrestling 2020 07 21 720p HDTV NWCHD DX-TV

Free Wrestling
 Free Online Wrestling

 

iMPACT Wrestling 21 07 2020 720p Full Show Free

 

 

Complete name :iMPACT.Wrestling.2020.07.21.720p.HDTV.x264-NWCHD.mp4
Format : MPEG-4
Format profile : Base Media
Codec ID : isom
File size : 2.81 GiB
Duration : 1 h 26 min
Overall bit rate : 4 664 kb/s
Writing application : Lavf58.27.103

iMPACT Wrestling 21 07 2020 720p Full Show Free

Video
ID : 1
Format : AVC
Duration : 1 h 26 min
Bit rate : 4 500 kb/s
Width : 1 280 pixels
Height : 720 pixels
Display aspect ratio : 16:9
Frame rate mode : Variable
Frame rate : 29.970 (30000/1001) FPS
Minimum frame rate : 29.240 FPS
Maximum frame rate : 29.970 FPS
Color space : YUV
Chroma subsampling : 4:2:0
Bit depth : 8 bits
Scan type : Progressive
Bits/(Pixel*Frame) : 0.163
Stream size : 2.69 GiB (96%)
Color primaries : BT.709
Transfer characteristics : BT.709
Matrix coefficients : BT.709
Codec configuration box : avcC

Wrestling 21 07 2020 720p Full Show Free

Audio
ID : 2
Format : AAC LC
Format/Info : Advanced
Codec ID : mp4a-40-2
Duration : 1 h 26 min
Bit rate mode : Constant
Bit rate : 192 kb/s
Channel(s) : 2 channels
Channel layout : L R
Sampling rate : 48.0 kHz
Frame rate : 46.875 FPS (1024 SPF)
Compression mode : Lossy
Stream size : 119 MiB (4%)
Title : Stereo
Default : Yes
Alternate group : 1

Wrestling 21 07 2020 720p Full Show Free

Eddie Edwards Reflects on Becoming World Champion

 

In the ring and talks about defeating Ace Austin, Trey, Rich Swann and Eric Young in the Five-Way Elimination Match to become World Champion at Slammiversary.

Eddie says he wants to be a champion that the world is proud of, a fighting champion.

Eddie announces an open challenge where he will defend his Title every single week on IMPACT!

Eric Young interrupts and Eddie berates him for re-injuring the knee of his friend, Rich Swann.

His says that Eddie should be happy it wasn’t him who he attacked.

Eddie has heard enough and charges through the ropes to attack. Eddie pummels him on the ramp before referees break it up.

As referees are holding Eddie back, Eric gets in a cheap shot.

 

iMPACT Wrestling 21 07 2020 720p Full Show Free

 

 

 

Watch online

 

 

Server 1

 

 

 

 

watch now

 

 

 

 

Server 2

 

 

 

Free Wrestling

 

 

 

Server-3

 

 

 

Free Wrestling

 

 

 

Uploaded By Site DX-TV.com

 

 

 

Download with premium account Links 

 

 

Keep2Share

 

 

nitroflare.com

 

 

rapidgator.net

 

 

uploadgig.com

 

 

 

dx-tv.com

 

urlfree.net

Leave a Reply

Your email address will not be published. Required fields are marked *

This site uses Akismet to reduce spam. Learn how your comment data is processed.