iMPACT Wrestling 2021 10 07 Full Show Replay

iMPACT Wrestling 2021 10 07 1080p Full Show Replay DX-TV

iMPACT Wrestling

 iMPACT Wrestling

 

 

 

Download Links with premium High Speed
 

 


 

Dopapk

 

 

Show Links

 

 

http://shrt10.com/cEOxh
http://shrt10.com/GVS92j
http://shrt10.com/owjIWsJbT

 

 

 

 

 

Nitroflare

 

 

Show Links

 

 

http://shrt10.com/T3ks0q8m
http://shrt10.com/MUxpr
http://shrt10.com/XkiJTbPrL

 

 

 

 

Rapidgator

 

 

Show Links

 

 

http://shrt10.com/ejwoH
http://shrt10.com/HWKl71
http://shrt10.com/K9kCiL

 

 

 

 

 

Uploaded
 

 

 

Show Links

 

 

http://shrt10.com/elV05Jp0
http://shrt10.com/iezPmInS
http://shrt10.com/TrS5N

 

 

 

 

 

 

 

Watch online

 

Server 1

 

 

 

 

iMPACT Wrestling

 

 

 

 

Server-2

 

 

 

 

watch now

 

 

 

|Server-3

 

 

 

 

watch now

 

 

Uploaded By Site DX-TV.com

 

 

Open Info Show

 

 

Complete name : iMPACT.Wrestling.2021.10.07.720p.HDTV.x264-NWCHD.mp4
Format : MPEG-4
Format profile : Base Media
Codec ID : iso/mp41)
File size : 2.81 GiB
Duration : 1 h 25 min
Overall bit rate : 4 672 kb/s

iMPACT Wrestling

Video
ID : 1
Format : AVC
Duration : 1 h 25 min
Bit rate : 4 472 kb/s
Width : 1 280 pixels
Height : 720 pixels
Display aspect ratio : 16:9
Frame rate mode : Variable
Frame rate : 29.970 (30000/1001) FPS
Minimum frame rate : 17.783 FPS
Maximum frame rate : 29.970 FPS
Color space : YUV
Chroma subsampling : 4:2:0
Bit depth : 8 bits
Scan type : Progressive
Bits/(Pixel*Frame) : 0.162
Stream size : 2.69 GiB (96%)
Color primaries : BT.709
Transfer characteristics : BT.709
Matrix coefficients : BT.709
Codec configuration box : avcC

iMPACT Wrestling

Audio
ID : 2
Format : AAC LC
Format/Info : Advanced
Codec ID : mp4a-40-2
Duration : 1 h 25 min
Bit rate mode : Constant
Bit rate : 192 kb/s
Channel(s) : 2 channels
Channel layout : L R
Sampling rate : 48.0 kHz
Frame rate : 46.875 FPS (1024 SPF)
Compression mode : Lossy
Stream size : 118 MiB (4%)
Title : Stereo
Language : English
Default : Yes
Alternate group : 1

Complete name : iMPACT.Wrestling.2021.10.07.1080p.WEB.h264-HEEL.mp4
Format : MPEG-4
Format profile : Base Media
Codec ID : is1/mp41)
File size : 4.82 GiB
Duration : 1 h 26 min
Overall bit rate : 8 017 kb/s

iMPACT Wrestling

Video
ID : 1
Format : AVC
Format/Info : Advanced Codec
Duration : 1 h 26 min
Bit rate : 7 817 kb/s
Nominal bit rate : 8 500 kb/s
Width : 1 920 pixels
Height : 1 080 pixels
Display aspect ratio : 16:9
Frame rate mode : Constant
Frame rate : 29.970 (30000/1001) FPS
Color space : YUV
Chroma subsampling : 4:2:0
Bit depth : 8 bits
Scan type : Progressive
Bits/(Pixel*Frame) : 0.126
Stream size : 4.70 GiB (98%)

iMPACT Wrestling

Audio
ID : 2
Format : AAC LC
Format/Info : Advanced
Codec ID : mp4a-40-2
Duration : 1 h 26 min
Bit rate mode : Constant
Bit rate : 192 kb/s
Channel(s) : 2 channels
Channel layout : L R
Sampling rate : 48.0 kHz
Frame rate : 46.875 FPS (1024 SPF)
Compression mode : Lossy
Stream size : 117 MiB (2%)
Default : Yes
Alternate group : 1

Complete name : iMPACT.Wrestling.2021.10.07.HDTV.x264-NWCHD.mp4
Format : MPEG-4
Format profile : Base Media
Codec ID : iso1)
File size : 980 MiB
Duration : 1 h 25 min
Overall bit rate : 1 593 kb/s

Video
ID : 1
Format : AVC
Duration : 1 h 25 min
Bit rate : 1 392 kb/s
Width : 704 pixels
Height : 400 pixels
Display aspect ratio : 16:9
Frame rate mode : Variable
Frame rate : 29.970 (30000/1001) FPS
Minimum frame rate : 17.783 FPS
Maximum frame rate : 29.970 FPS
Color space : YUV
Chroma subsampling : 4:2:0
Bit depth : 8 bits
Scan type : Progressive
Bits/(Pixel*Frame) : 0.165
Stream size : 856 MiB (87%)
Color primaries : BT.709
Transfer characteristics : BT.709
Matrix coefficients : BT.709
Codec configuration box : avcC

iMPACT Wrestling

Audio
ID : 2
Format : AAC LC
Format/Info : Advanced
Codec ID : mp4a-40-2
Duration : 1 h 25 min
Bit rate mode : Constant
Bit rate : 192 kb/s
Channel(s) : 2 channels
Channel layout : L R
Sampling rate : 48.0 kHz
Frame rate : 46.875 FPS (1024 SPF)
Compression mode : Lossy
Stream size : 118 MiB (12%)
Title : Stereo
Language : English
Default : Yes
Alternate group : 1

 

 

https://dx-tv.com/

 

 

 

 

 

Leave a Reply

Your email address will not be published. Required fields are marked *

This site uses Akismet to reduce spam. Learn how your comment data is processed.