iMPACT Wrestling 2021 02 09 1080p DX-TV

iMPACT Wrestling 2021 02 09 720p / 1080p HDTV Star DX-TV

iMPACT Wrestling 2021 02 09

 iMPACT Wrestling 2021 02 09

 

 

 

Download Links with High Speed


Dopapk

 

 

Show Links

 

http://shrt10.com/JtKBBo
http://shrt10.com/lqQTLKW
http://shrt10.com/dTkVyHf

 

[collapse]

 

 

Nitroflare

 

 

Show Links

 

http://shrt10.com/RNXvHU
http://shrt10.com/sOzWkKi8h
http://shrt10.com/Of3TAi

 

[collapse]

 

 

Rapidgator

 

 

Show Links

 

http://shrt10.com/MPDmLBv
http://shrt10.com/mGbxrC
http://shrt10.com/t0hj2Ve1x

 

[collapse]

 

 

Uploaded

 

 

Show Links

 

http://shrt10.com/NP8m7iFCO
http://shrt10.com/ckwEVXzy

 

[collapse]

 

 

Watch iMPACT Wrestling online

 

Server 1

 

 

 

 

iMPACT Wrestling

 

 

 

 

Server-2

 

 

 

 

watch now

 

 

Uploaded By Site DX-TV.com

 

 

Show Info This Show

 

 

Complete name : iMPACT.Wrestling.2021.02.09.720p.HDTV.x264-Star.mkv
Format : Matroska
Format version : Version 4
File size : 2.49 GiB
Duration : 1 h 26 min
Overall bit rate : 4 100 kb/s

iMPACT Wrestling

Video
ID : 1
Format : AVC
Format/Info : Advanced Video
Duration : 1 h 26 min
Bit rate : 4 000 kb/s
Width : 1 280 pixels
Height : 720 pixels
Display aspect ratio : 16:9
Frame rate mode : Constant
Frame rate : 29.970 (30000/1001) FPS
Color space : YUV
Chroma subsampling : 4:2:0
Bit depth : 8 bits
Scan type : Progressive
Bits/(Pixel*Frame) : 0.145
Stream size : 2.36 GiB (95%)
Forced : No
Color range : Limited
Color primaries : BT.709
Transfer characteristics : BT.709
Matrix coefficients : BT.709

Audio
ID : 2
Format : AC-3
Format/Info : Audio Coding 3
Commercial name : Dolby Digital
Codec ID : A_AC3
Duration : 1 h 26 min
Bit rate mode : Constant
Bit rate : 128 kb/s
Channel(s) : 2 channels
Channel layout : L R
Sampling rate : 48.0 kHz
Frame rate : 31.250 FPS
Compression mode : Lossy
Delay relative to video : -5 ms
Stream size : 79.6 MiB (3%)
Title : Stereo
Service kind : Complete Main
Default : Yes
Forced : No

iMPACT Wrestling

Complete name : iMPACT.Wrestling.2021.02.09.1080p.HDTV.x264-Star.mkv
Format : Matroska
Format version : Version 4
File size : 4.90 GiB
Duration : 1 h 26 min
Overall bit rate : 8 077 kb/s

Video
ID : 1
Format : AVC
Format/Info : Advanced Video
Duration : 1 h 26 min
Bit rate : 8 000 kb/s
Width : 1 920 pixels
Height : 1 080 pixels
Display aspect ratio : 16:9
Frame rate mode : Constant
Frame rate : 29.970 (30000/1001) FPS
Color space : YUV
Chroma subsampling : 4:2:0
Bit depth : 8 bits
Scan type : Progressive
Bits/(Pixel*Frame) : 0.129
Stream size : 4.73 GiB (96%)
Forced : No
Color range : Limited
Color primaries : BT.709
Transfer characteristics : BT.709
Matrix coefficients : BT.709

iMPACT Wrestling

Audio
ID : 2
Format : AC-3
Format/Info : Audio Coding 3
Commercial name : Dolby Digital
Codec ID : A_AC3
Duration : 1 h 26 min
Bit rate mode : Constant
Bit rate : 128 kb/s
Channel(s) : 2 channels
Channel layout : L R
Sampling rate : 48.0 kHz
Frame rate : 31.250 FPS (1536 SPF)
Compression mode : Lossy
Delay relative to video : -5 ms
Stream size : 79.6 MiB (2%)
Title : Stereo
Service kind : Complete Main
Default : Yes
Forced : No

General
Complete name : iMPACT.Wrestling.2021.02.09.HDTV.x264-Star.mp4
Format : MPEG-4
Format profile : Base Media / Version 2
Codec ID : mp42 (isom/iso2/avc1)
File size : 875 MiB
Duration : 1 h 26 min
Overall bit rate : 1 409 kb/sĀ 

Video
ID : 1
Format : AVC
Format/Info : Advanced Video CodecĀ 
Duration : 1 h 26 min
Bit rate : 1 300 kb/s
Width : 720 pixels
Height : 480 pixels
Display aspect ratio : 16:9
Original display aspect rat : 16:9
Frame rate mode : Constant
Frame rate : 29.970 (30000/1001) FPS
Standard : NTSC
Color space : YUV
Chroma subsampling : 4:2:0
Bit depth : 8 bits
Scan type : Progressive
Bits/(Pixel*Frame) : 0.126
Stream size : 801 MiB (91%)
Color range : Limited
Color primaries : BT.709
Transfer characteristics : BT.709
Matrix coefficients : BT.709
Codec configuration box : avcC

iMPACT Wrestling

Audio
ID : 2
Format : AAC LC
Format/Info : Advanced Audio
Codec ID : mp4a-40-2
Duration : 1 h 26 min
Bit rate mode : Constant
Bit rate : 112 kb/s
Channel(s) : 2 channels
Channel layout : L R
Sampling rate : 48.0 kHz
Frame rate : 46.875 FPS (1024 SPF)
Compression mode : Lossy
Stream size : 69.4 MiB (8%)
Title : Stereo
Default : Yes
Alternate group : 1

 

 

[collapse]

 

 

https://dx-tv.com/

You May Also Like