iMPACT Wrestling 2020 09 29 Full show free

Watch iMPACT Wrestling 2020 09 29 HDTV NWCHD DX-TV

 

iMPACT Wrestling

 

 iMPACT Wrestling 2020 09 29
 


 

 

iMPACT Wrestling 2020 09 29 Full show free

 

 

Rascalz (Dez & Wentz) vs Good Brothers (Doc Gallows & Karl Anderson)

As the stacked tag team division jockeys for position on the road to Bound for Glory, a win here could move either team closer to a coveted Tag Team Championship opportunity against the Motor City Machine Guns.

iMPACT Wrestling

Gallows connects with a massive clothesline, turning Dez inside out. Gallows follows up with a delayed vertical suplex as he continues the beatdown on Dez. Anderson gets in on the action as the Good Brothers employ frequent tags during the wear-down process. The Rascalz create separation, allowing Wentz to tag into the match. Wentz hits a top rope double foot stomp but Anderson gets his knees up on the follow-up Hot Fire Flame. The Good Brothers connect with the Magic Killer on Dez to score the victory.

iMPACT Wrestling

Good Brothers (Doc Gallows & Karl Anderson) def Rascalz (Dez & Wentz)

After the match, Anderson gets on the mic and calls out the Motor City Machine Guns, claiming that they are coming for the Tag Team Championships at the biggest event of the year, Bound for Glory.

iMPACT Wrestling

There’s a standoff in the back between Brian Myers and Tommy Dreamer. The hardcore legend puts his hands on the Most Professional Wrestler. Myers persuades him to be professional, which leads to Dreamer challenging him to a match this Saturday at Victory Road.

iMPACT Wrestling

 

Complete name : iMPACT.Wrestling.2020.09.29.HDTV.x264-NWCHD.mp4
Format : MPEG-4
Format profile : Base Media
Codec ID : isom
File size : 970 MiB
Duration : 1 h 25 min
Overall bit rate : 1 581 kb/s
Writing application : Lavf58.27.103

iMPACT Wrestling

Video
ID : 1
Format : AVC
Codec ID/Info : Advanced
Duration : 1 h 25 min
Bit rate : 1 400 kb/s
Width : 704 pixels
Height : 400 pixels
Display aspect ratio : 16:9
aspect rat : 16:9
Frame rate mode : Variable
 rate : 29.970 (30000/1001) FPS
Color space : YUV
Chroma subsampling : 4:2:0
Bit depth : 8 bits
Scan type : Progressive
Bits/(Pixel*Frame) : 0.166
Stream size : 846 MiB (87%)
Color primaries : BT.709
Transfer characteristics : BT.709
Matrix coefficients : BT.709
Codec configuration box : avcC

iMPACT Wrestling

Audio
ID : 2
Format : AAC LC
Format/Info : Advanced Audio
Codec ID : mp4a-40-2
Duration : 1 h 25 min
Bit rate mode : Constant
Bit rate : 192 kb/s
Channel(s) : 2 channels
Channel layout : L R
Sampling rate : 48.0 kHz
Frame rate : 46.875 FPS (1024 SPF)
Compression mode : Lossy
Stream size : 118 MiB (12%)
Title : Stereo
Language : English
Default : Yes
Alternate group : 1

 

 

 

iMPACT Wrestling 2020 09 29 Full show free

 

 

 

 

Watch online

 

 

 

 

 

Server 1

 

 

 

 

watch now

 

 

 

 

Server-2

 

 

 

watch now

 

 

 

 

Server-3

 

 

 

iMPACT Wrestling

 

 

 

 

Uploaded By Site DX-TV.com

 

 

 

 

Download Free Links with normal and high Speed [ more 15 hosts ]  

 

 

 

 

http://shrt10.com/7GjxYg4a
http://shrt10.com/9tzaMrjV
http://shrt10.com/Lwxmw
http://shrt10.com/E2rsCef
http://shrt10.com/jv3uwy
http://shrt10.com/IV9b8j
http://shrt10.com/k56P60gEz
http://shrt10.com/HKqG6
http://shrt10.com/86MnLPZ0o
http://shrt10.com/hTlDdJ9
http://shrt10.com/voFEiQI
http://shrt10.com/Xc5ei
http://shrt10.com/2Bwdhef1s

 

 

 

Download Links with premium High Speed   

 

 

 

nitroflare.com

 

 

 

rapidgator.net

 

 

 

uploaded.net

 

 

 

uploadgig.com

 

 

 

 

 

dx-tv.com

 

urlfree.net

Leave a Reply

Your email address will not be published. Required fields are marked *

This site uses Akismet to reduce spam. Learn how your comment data is processed.