iMPACT Wrestling 2020 09 22 Full Show Free

Watch iMPACT Wrestling 2020 09 22 HDTV NWCHD DX-TV

 

iMPACT Wrestling

 

 iMPACT Wrestling
 


 

 

iMPACT Wrestling 2020 09 22 Full Show Free

 

Please Note : RVD Match has been removed from show, I can’t add this match.

 

Kimber Lee w/ Knockouts Champion Deonna Purrazzo vs Susie w/ Kylie Rae

Will we see more signs of Su Yung tonight? Lee hits a strong backbreaker in the early stages of the match. dropkicks Susie through the ropes to the floor. Lee distracts the referee, allowing Deonna to attack Susie on the outside. Susie attempts the Aracnarana but Lee counters into a Boston Crab. We continue to see offense reminiscent of Su Yung. Lee hits a sit-down powerbomb for two. Deonna inadvertently strikes Lee on the top rope. Susie capitalizes with Su Yung’s finisher, the Panic Switch, to win.

iMPACT Wrestling

Susie w/ Kylie Rae def Kimber Lee w/ Knockouts Champion Deonna Purrazzo

After the match, Deonna attacks Kylie from behind. Susie attempts to fight her off but Deonna locks in the cross armbar. Deonna falls victim to the numbers game as Kylie sends her retreating up the ramp. #1 contender Kylie Rae gets on the mic and challenges The Virtuosa to a Knockouts Championship match at Bound for Glory.

After they stole a roll of cash from Hernandez last week, Heath and Rhino now have the funds to continue the #Heath4IMPACT campaign with a new-and-improved commercial, featuring celebrity endorsements and messages from his family.

iMPACT Wrestling

EC3 gives out Moose’s telephone number to the entire world, asking for any relevant information that will help the self-proclaimed TNA World Heavyweight Champion find his stolen championship.

 

Complete name : iMPACT.Wrestling.2020.09.22.HDTV.x264-NWCHD.mp4
Format : MPEG-4
Format profile : Base Media
Codec ID : isom
File size : 834 MiB
Duration : 1 h 13 min
Overall bit rate : 1 595 kb/s

iMPACT Wrestling

Video
ID : 1
Format : AVC
Duration : 1 h 13 min
Bit rate : 1 388 kb/s
Width : 704 pixels
Height : 400 pixels
Display aspect ratio : 16:9
Original aspect rat : 16:9
Frame rate mode : Constant
 rate : 29.970 (30000/1001) FPS
Color space : YUV
Chroma subsampling : 4:2:0
Bit depth : 8 bits
Scan type : Progressive
Bits/(Pixel*Frame) : 0.164
Stream size : 726 MiB (87%)
Color range : Limited
Color primaries : BT.709
Transfer characteristics : BT.709
Matrix coefficients : BT.709

iMPACT Wrestling

Audio
ID : 2
Format : AAC LC
Format/Info : Advanced
Codec ID : mp4a-40-2
Duration : 1 h 13 min
Duration_Last Frame : -21 ms
Bit rate mode : Constant
Bit rate : 192 kb/s
Channel(s) : 2 channels
Channel layout : L R
Sampling rate : 48.0 kHz
Frame rate : 46.875 FPS (1024 SPF)
Compression mode : Lossy
Stream size : 101 MiB (12%)
Language : English
Default : Yes
Alternate group : 1

 

 

iMPACT Wrestling 2020 09 22 Full Show Free

 

 

 

 

Watch online

 

 

 

 

 

Server 1

 

 

 

 

watch now

 

 

 

 

Server-2

 

 

 

watch now

 

 

 

 

Server-3

 

 

 

iMPACT Wrestling

 

 

 

 

Uploaded By Site DX-TV.com

 

 

 

 

Download Free Links with normal and high Speed [ more 15 hosts ]  

 

 

 

http://shrt10.com/uZc0Del
http://shrt10.com/0r2xbvJ
http://shrt10.com/3RjLk9l
http://shrt10.com/PhGoysyV
http://shrt10.com/EwLWROH
http://shrt10.com/PX9ztNc6P
http://shrt10.com/2Rw0Wozzw
http://shrt10.com/eXSaaGDxA
http://shrt10.com/f2bwTB7j
http://shrt10.com/iMslPJNs
http://shrt10.com/AJ9C1IeZ8
http://shrt10.com/430HE8
http://shrt10.com/g7nF9nNJ

 

 

 

 

Download Links with premium High Speed   

 

 

 

 

 

Keep2Share

 

 

 

uploaded.net

 

 

 

nitroflare.com

 

 

 

rapidgator.net

 

 

 

uploadgig.com

 

 

 

 

 

dx-tv.com

 

urlfree.net

Leave a Reply

Your email address will not be published. Required fields are marked *

This site uses Akismet to reduce spam. Learn how your comment data is processed.