iMPACT Wrestling 2020 09 22 1080i Download Free

Watch iMPACT Wrestling 2020 09 22 1080i Download Free DX-TV

 

iMPACT Wrestling

 

 iMPACT Wrestling
 


 

 

iMPACT Wrestling 2020 09 22 1080i Download Free

 

 

Tenille Dashwood w/ Kaleb vs Jordynne Grace

As David Penzer introduces Tenille Dashwood, he is interrupted by Kaleb with a K who opts to introduce her himself. This is Tenille’s return to in-ring competition as she gains control in the early going by pulling Jordynne all the way from the apron to floor. Both competitors are jockeying for position when Tenille hits a reverse DDT for two. Tenille fights off the Grace Driver but gets caught with a Michinoku Driver instead. Tenille hits a double stomp in the corner, followed by the Taste of Tenielle for another near fall. Kaleb gets on the apron as he pretends to take a photo of but his true intention is to distract Jordynne while she goes for the Grace Driver. Tenille capitalizes with the Spotlight Kick off the distraction to win.

iMPACT Wrestling

Complete name : iMPACT.Wrestling.2020.09.23.1080i.HDTV.MPEGTS-JOKER2K.ts
Format : MPEG-TS
File size : 4.50 GiB
Duration : 1 h 33 min
Overall bit rate mode : Variable
Overall bit rate : 6 860 kb/s

Video
Format : AVC
Codec ID : 27
Duration : 1 h 33 min
Bit rate : 5 875 kb/s
Width : 1 920 pixels
Height : 1 080 pixels
Display aspect ratio : 16:9
Frame rate : 25.000 FPS
Color space : YUV
Chroma subsampling : 4:2:0
Bit depth : 8 bits
Scan type : MBAFF
Scan order : Top Field First
Bits/(Pixel*Frame) : 0.113
Stream size : 3.85 GiB (86%)

iMPACT Wrestling

Audio #1
ID : 1031 (0x407)
Menu ID : 510 (0x1FE)
Format : AC-3
Format/Info : Audio Coding 3
Commercial name : Dolby Digital
Codec ID : 129
Duration : 1 h 33 min
Bit rate mode : Constant
Bit rate : 256 kb/s
Channel(s) : 2 channels
Channel layout : L R
Sampling rate : 48.0 kHz
Frame rate : 31.250 FPS (1536 SPF)
Compression mode : Lossy
Delay relative to video : -852 ms
Stream size : 172 MiB (4%)
Service kind : Complete Main

iMPACT Wrestling

Audio #2
ID : 1032 (0x408)
Menu ID : 510 (0x1FE)
Format : AC-3
Format/Info : Audio Coding 3
Commercial name : Dolby Digital
Codec ID : 129
Duration : 1 h 33 min
Bit rate mode : Constant
Bit rate : 384 kb/s
Channel(s) : 6 channels
Channel layout : L R C LFE Ls Rs
Sampling rate : 48.0 kHz
Frame rate : 31.250 FPS (1536 SPF)
Compression mode : Lossy
Delay relative to video : -852 ms
Stream size : 258 MiB (6%)
Service kind : Complete Main

 

 

 

iMPACT Wrestling 2020 09 22 1080i Download Free

 

 

 

 

Watch online

 

 

 

 

 

Server 1

 

 

 

 

watch now

 

 

 

 

Server-2

 

 

 

watch now

 

 

 

 

Server-3

 

 

 

iMPACT Wrestling

 

 

 

 

Uploaded By Site DX-TV.com

 

 

 

 

Download Free Links with normal and high Speed [ more 15 hosts ]  

 

 

 

http://shrt10.com/XtD3i7IC
http://shrt10.com/WbNsn7
http://shrt10.com/gOpoQa
http://shrt10.com/Zm9NJ6
http://shrt10.com/P0gwwQ
http://shrt10.com/jzerwXV
http://shrt10.com/ndo2w0nB
http://shrt10.com/cIJrL4

 

 

 

 

Download Links with premium High Speed   

 

 

 

 

 

Keep2Share

 

 

 

uploaded.net

 

 

 

nitroflare.com

 

 

 

rapidgator.net

 

 

 

uploadgig.com

 

 

 

 

 

dx-tv.com

 

urlfree.net

Leave a Reply

Your email address will not be published. Required fields are marked *

This site uses Akismet to reduce spam. Learn how your comment data is processed.