iMPACT Wrestling 2020 03 24 Full Show

Watch iMPACT Wrestling 2020 03 24 HDTV NWCHD DX-TV

iMPACT

 

 iMPACT wrestling

 

 

iMPACT Wrestling 2020 03 24 Full Show

 

 

Complete name : iMPACT.Wrestling.2020.03.24.HDTV.x264-NWCHD.mp4
Format : MPEG-4
Format profile : Base Media
Codec ID : isom
File size : 982 MiB
Duration : 1 h 25 min
Overall bit rate : 1 598 kb/s
Writing application : iMPACT

Video
ID : 1
Format : AVC
Duration : 1 h 25 min
Bit rate : 1 400 kb/s
Width : 704 pixels
Height : 400 pixels
Display aspect ratio : 16:9
Frame rate mode : iMPACT
Frame rate : 29.970 (30000/1001) FPS
Minimum frame rate : 29.297 FPS
Maximum frame rate : 29.970 FPS
Color space : YUV
Chroma subsampling : 4:2:0
Bit depth : 8 bits
Scan type : iMPACT
Bits/(Pixel*Frame) : 0.166
Stream size : 858 MiB (87%)
Color primaries : BT.709
Transfer : iMPACT
Matrix coefficients : BT.709
Codec configuration box : avcC

Audio
ID : 2
Format : AAC LC
Format/Info : iMPACT
Codec ID : mp4a-40-2
Duration : 1 h 25 min
Bit rate mode : Constant
Bit rate : 192 kb/s
Channel(s) : 2 channels
Channel layout : L R
Sampling rate : 48.0 kHz
Frame rate : 46.875 FPS (1024 SPF)
Compression mode : Lossy
Stream size : 118 MiB (12%)
Title : Stereo
Default : Yes
Alternate group : iMPACT

 

 

 

Watch online

 

 

Server 1

 

 

 

 

watch now

 

 

 

 

Server 2

 

 

 

watch now

 

 

 

iMPACT Wrestling 2020 03 24 Full Show

 

 

Uploaded By Site DX-TV.com

 

 

Download with Free Links 

 

 

1fichier.com

 

 

DDL.to

 

 

rockfile.co

 

 

 

Download with premium account Links 

 

 

Keep2Share

 

 

mixdrop.co

 

 

alfafile.net

 

 

nitroflare.com

 

 

rapidgator.net

 

 

uploadgig.com

 

 

 

dx-tv.com

 

urlfree.net

Leave a Reply

Your email address will not be published. Required fields are marked *

This site uses Akismet to reduce spam. Learn how your comment data is processed.

%d bloggers like this: