iMPACT Wrestling 2020 03 24 720p

Watch iMPACT Wrestling 2020 03 24 720p HDTV NWCHD DX-TV

iMPACT

 iMPACT wrestling

 

 

iMPACT Wrestling 2020 03 24 720p

 

Complete name : iMPACT.Wrestling.2020.03.24.720p.HDTV.x264-NWCHD.mp4
Format : MPEG-4
Format profile : Base Media
Codec ID : isom
File size : 2.81 GiB
Duration : 1 h 25 min
Overall bit rate : 4 690 kb/s
Writing application : iMPACT

Video
ID : 1
Format : AVC
Duration : 1 h 25 min
Bit rate : 4 500 kb/s
Width : 1 280 pixels
Height : 720 pixels
Display aspect ratio : 16:9
Frame rate mode : iMPACT
Frame rate : 29.970 (30000/1001) FPS
Minimum frame rate : 29.297 FPS
Color space : YUV
Chroma  : 4:2:0
Bit depth : 8 bits
Scan type : Progressive
Bits/(Pixel*Frame) : 0.163
Stream size : 2.69 GiB (96%)
Color primaries : BT.709
Transfer characteristics : BT.709
Matrix coefficients : iMPACT 

Audio
ID : 2
Format : AAC LC
Format/Info : iMPACT
Codec ID : mp4a-40-2
Duration : 1 h 25 min
Bit rate mode : iMPACT
Bit rate : 192 kb/s
Channel(s) : 2 channels
Channel layout : L R
Sampling rate : 48.0 kHz
Frame rate : 46.875 FPS (1024 SPF)
Compression mode : Lossy
Stream size : 118 MiB (4%)
Title : Stereo
Default : iMPACT
Alternate group : 1

 

 

 

Watch online

 

 

Server 1

 

 

 

 

watch now

 

 

 

 

Server 2

 

 

 

watch now

 

 

 

iMPACT Wrestling 2020 03 24 720p

 

 

Uploaded By Site DX-TV.com

 

 

Download with Free Links 

 

 

1fichier.com

https://shrt10.com/LSeXA

https://shrt10.com/uX8LEz

 

DDL.to

https://shrt10.com/kGm6NU2
https://shrt10.com/pD7h0aLFd

 

rockfile.co

https://shrt10.com/QjoLud
https://shrt10.com/y6VcMSY0X

 

 

Download with premium account Links 

 

 

Keep2Share

 

 

mixdrop.co

 

 

alfafile.net

 

 

nitroflare.com

 

 

rapidgator.net

 

 

uploadgig.com

 

 

 

dx-tv.com

 

urlfree.net

Leave a Reply

Your email address will not be published. Required fields are marked *

This site uses Akismet to reduce spam. Learn how your comment data is processed.