iMPACT Wrestling 2020 02 11 720p Star

Watch iMPACT Wrestling 2020 02 11 720p Star DX-TV

 

 

 

 iMPACT Wrestling

 

 

iMPACT Wrestling

 

iMPACT Wrestling 2020 02 11 720p Star

 

 

 

 

 

Complete name : iMPACT.Wrestling.2020.02.11.720p.HDTV.x264-Star.mkv
Format : Matroska
Format version : Version 4
File size : 3.65 GiB
Duration : 1 h 28 min
Overall bit rate : 5 889 kb/s
Writing library : Lavf58.29.100
ErrorDetectionType : Per level 1

Video
ID : 1
Format : AVC
Codec ID : V_MPEG4/ISO/AVC
Duration : 1 h 28 min
Bit rate : 5 500 kb/s
Width : 1 280 pixels
Height : 720 pixels
Display aspect ratio : 16:9
Frame rate mode : Constant
Frame rate : 25.000 FPS
Color space : YUV
Chroma subsampling : 4:2:0
Bit depth : 8 bits
Scan type : Progressive
Bits/(Pixel*Frame) : 0.239
Stream size : 3.34 GiB (91%)
Forced : No
Color range : Limited
Color primaries : BT.709
Transfer characteristics : BT.709
Matrix coefficients : BT.709

Audio
ID : 2
Format : AC-3
Codec ID : A_AC3
Duration : 1 h 28 min
Bit rate mode : Constant
Bit rate : 384 kb/s
Channel(s) : 6 channels
Channel layout : L R C LFE Ls Rs
Sampling rate : 48.0 kHz
Frame rate : 31.250 FPS (1536 SPF)
Compression mode : Lossy
Delay relative to video : -5 ms
Stream size : 244 MiB (7%)
Title : Surround
Language : any
Service kind : Complete Main
Default : Yes
Forced : No

 

 

Watch online

 

 

Server 1

 

 

 

 

 

 

 

 

 

 

Server 2

 

 

 

 

 

 

 

 

 

 

Server–3

 

 

Wrestling

 

 

 

 

 

 

iMPACT Wrestling 2020 02 11 720p Star

 

 

 

Uploaded By Site DX-TV.com

 

 

 

 

 

1fichier.com 

https://shrt10.com/QxW8J
https://shrt10.com/6XkjX4gX
https://shrt10.com/EmEr8Cy

 

DDL.to

https://shrt10.com/q4XHKvLJ
https://shrt10.com/ieN2jdOWt
https://shrt10.com/qSbpTS7

 

 

earn4files.com

https://shrt10.com/QfRivO2L
https://shrt10.com/AdYby8
https://shrt10.com/aIz6w

 

rockfile.co

https://shrt10.com/NIjLx
https://shrt10.com/ZRLFIq
https://shrt10.com/F5XdvFWK

 

 

Download with premium account Links 

 

 

Keep2Share

 

 

nitroflare.com

 

 

rapidgator.net

 

 

uploadgig.com

 

 

 

dx-tv.com

 

Leave a Reply

Your email address will not be published. Required fields are marked *

This site uses Akismet to reduce spam. Learn how your comment data is processed.