iMPACT Wrestling 2020 02 04 720p

iMPACT Wrestling 2020 02 04 720p DX-TV

 

 

 iMPACT Wrestling

 

 

 

 

Wrestling
 

 

 

iMPACT Wrestling 2020 02 04 720p

 

 

 

Complete name : iMPACT.Wrestling.2020.02.04.720p.HDTV.x264-NWCHD.mp4
Format : MPEG-4
Format profile : Base Media
File size : 2.92 GiB
Duration : 1 h 29 min
Overall bit rate : 4 655 kb/s

Video
ID : 1
Format : AVC
Duration : 1 h 29 min
Bit rate : 4 500 kb/s
Width : 1 280 pixels
Height : 720 pixels
Display aspect ratio : 16:9
Frame rate mode : Variable
Frame rate : 29.970 (30000/1001) FPS
Minimum frame rate : 26.432 FPS
Maximum frame rate : 29.970 FPS
Color space : YUV
Chroma subsampling : 4:2:0
Bit depth : 8 bits
Scan type : Progressive
Bits/(Pixel*Frame) : 0.163
Stream size : 2.79 GiB (96%)

Audio
ID : 2
Format : AAC LC
Codec ID : mp4a-40-2
Duration : 1 h 29 min
Bit rate mode : Constant
Bit rate : 192 kb/s
Channel(s) : 2 channels
Channel layout : L R
Sampling rate : 48.0 kHz
Frame rate : 46.875 FPS (1024 SPF)
Compression mode : Lossy
Stream size : 123 MiB (4%)

 

 

 

 

 

 

Watch online

 

 

Server 1

 

 

 

 

 

 

 

 

 

 

 

Server 2

 

 

 

 

 

 

 

 

 

 

Server–3

 

 

 

 

 

 

 

 

 

iMPACT Wrestling 2020 02 04 720p

 

 

 

Uploaded By Site DX-TV.com

 

 

 

 

1fichier.com 

 

 

earn4files.com

 

 

filerio.in

 

 

 

 

Download with premium account Links 

 

 

nitroflare.com

 

 

rapidgator.net

 

 

Uploaded.net

 

 

 

dx-tv.com