Impact Victory Road 2020 Full Show 1080p

Watch Impact Victory Road 2020 Full Show 1080p 4GB DX-TV

Impact Victory Road 2020

 

 Impact Victory Road 2020

Impact Victory Road 2020 Full Show 1080p

 

 

Please Note :

I fixed and updated all links streaming and download links with show completed

 

Several additions bouts including action featuring Tommy Dreamer, Rhino, Heath, a third showdown between Tenille Dashwood .

and Jordynne Grace, as well as the X-Division Championship up-for-grabs when Rohit Raju defends in a “Defeat Rohit Challenge.” Impact Victory Road

Impact Victory Road 2020

Victory Road is only two days away and fans can catch the show on IMPACT Plus. Most of the card was finalised on Tuesday’s edition of IMPACT!

and a Knockouts Championship match and X Division Title match were added to the show.

Jordynne Grace and Tenille Dashwood will also go one on one for the third time and Tommy Dreamer will look to teach Brian Myers some respect.

Heath and Rhino will also team together for the first time in IMPACT Wrestling against Reno Scum in an Unsanctioned Match. Im

Impact Victory Road 2020

Complete name : C:\DX\WWE\DX FTP\BY DX-TV.COM Impact Victory Road 2020 Oct 3 PPV 1080p WEB H264 DX-TV.mp4
Format : MPEG-4
Format profile : Base Media
Codec ID : isom 
File size : 4.26 GiB
Duration : 2 h 44 min
Overall bit rate : 3 698 kb/s
Movie name : Victory Road 2020
Writing application : Lavf58.25.100

Impact Victory Road 2020

Video
ID : 1
Format : AVC
Duration : 2 h 44 min
Bit rate : 3 495 kb/s
Width : 1 920 pixels
Height : 1 080 pixels
Display aspect ratio : 16:9
Frame rate mode : Constant
rate : 29.970 (30000/1001) FPS
Color space : YUV
Chroma subsampling : 4:2:0
Bit depth : 8 bits
Scan type : Progressive
Bits/(Pixel*Frame) : 0.056
Stream size : 4.02 GiB (95%)
Color range : Limited
Color primaries : BT.709
Transfer characteristics : BT.709
Matrix coefficients : BT.709
Codec configuration box : avcC

Impact Victory Road 2020

Audio
ID : 2
Format : AAC LC
Format/Info : Advanced 
Codec ID : mp4a-40-2
Duration : 2 h 44 min
Bit rate mode : Constant
Bit rate : 192 kb/s
Channel(s) : 2 channels
Channel layout : L R
Sampling rate : 48.0 kHz
Frame rate : 46.875 FPS (1024 SPF)
Compression mode : Lossy
Stream size : 226 MiB (5%)
Default : Yes
Alternate group : 1

 

 

 

Impact Victory Road 2020 Full Show 1080p

 

 

Watch online

 

 

Server 1

 

 

 

 

watch now

 

 

 

 

Server-2

 

 

 

Impact Victory Road 2020

 

 

 

 

Server-3

 

 

 

watch now

 

 

 

 

Uploaded By Site DX-TV.com

 

 

 

Download Links with premium High Speed   

 

 

 

nitroflare.com

 

 

 

rapidgator.net

 

 

uploadgig.com

 

 

 

 

 

dx-tv.com

 

urlfree.net

Leave a Reply

Your email address will not be published. Required fields are marked *

This site uses Akismet to reduce spam. Learn how your comment data is processed.