iMPACT Slammiversary 2021 720p Online Free NWCHD Replay DX-TV

Contents show

iMPACT Slammiversary 2021

 iMPACT Wrestling Slammiversary 2021

 

 

 

Download Links with premium High Speed


 

Dopapk

 

 

Show Links

 

http://shrt10.com/6n0rFv2dR

 

[collapse]

 

 

Nitroflare

 

 

Show Links

 

http://shrt10.com/hzxgdULM

 

[collapse]

 

 

Rapidgator

 

 

Show Links

 

http://shrt10.com/6HRvXlc

 

[collapse]

 

 

Uploaded

 

 

Show Links

 

 

[collapse]

 

 

Watch online

 

Server 1

 

 

 

 

iMPACT Slammiversary 2021

 

 

 

 

Server-2

 

 

 

 

watch now

 

 

 

|Server-3

 

 

 

 

watch now

 

 

Uploaded By Site DX-TV.com

 

 

Show Info This Show

 

iMPACT Slammiversary 2021

Complete name : iMPACT.Wrestling.Slammiversary.2021.720p.HDTV.x264-NWCHD.mp4
Format : MPEG-4
Format profile : Base Media
Codec ID : mp42
File size : 5.65 GiB
Duration : 2 h 52 min
Overall bit rate mode : Variable
Overall bit rate : 4 691 kb/s

Video
ID : 1
Format : AVC
Format/Info : Advanced Video
Duration : 2 h 52 min
Bit rate : 4 500 kb/s
Width : 1 280 pixels
Height : 720 pixels
Display aspect ratio : 16:9
Frame rate mode : Constant
Frame rate : 29.970 (30000/1001) FPS
Color space : YUV
Chroma subsampling : 4:2:0
Bit depth : 8 bits
Scan type : Progressive
Bits/(Pixel*Frame) : 0.163
Stream size : 5.41 GiB (96%)
Color range : Limited
Color primaries : BT.709
Transfer characteristics : BT.709
Matrix coefficients : BT.709
Codec configuration box : avc

iMPACT Slammiversary 2021

Audio
ID : 2
Format : AAC LC
Format/Info : Advanced Audio
Codec ID : mp4a-40-2
Duration : 2 h 52 min
Bit rate mode : Variable
Bit rate : 192 kb/s
Channel(s) : 2 channels
Channel layout : L R
Sampling rate : 48.0 kHz
Frame rate : 46.875 FPS
Compression mode : Lossy
Stream size : 237 MiB (4%)
Title : Stereo
Language : English
Default : Yes
Alternate group : 1

iMPACT Slammiversary 2021

 

Complete name : iMPACT.Wrestling.Slammiversary.2021.720p.HDTV.x264-NWCHD.mp4
Format : MPEG-4
Format profile : Base Media
Codec ID : mp42
File size : 5.65 GiB
Duration : 2 h 52 min
Overall bit rate mode : Variable
Overall bit rate : 4 691 kb/s

Video
ID : 1
Format : AVC
Format/Info : Advanced Video
Duration : 2 h 52 min
Bit rate : 4 500 kb/s
Width : 1 280 pixels
Height : 720 pixels
Display aspect ratio : 16:9
Frame rate mode : Constant
Frame rate : 29.970 (30000/1001) FPS
Color space : YUV
Chroma subsampling : 4:2:0
Bit depth : 8 bits
Scan type : Progressive
Bits/(Pixel*Frame) : 0.163
Stream size : 5.41 GiB (96%)
Color range : Limited
Color primaries : BT.709
Transfer characteristics : BT.709
Matrix coefficients : BT.709
Codec configuration box : avc

iMPACT Slammiversary 2021

Audio
ID : 2
Format : AAC LC
Format/Info : Advanced Audio
Codec ID : mp4a-40-2
Duration : 2 h 52 min
Bit rate mode : Variable
Bit rate : 192 kb/s
Channel(s) : 2 channels
Channel layout : L R
Sampling rate : 48.0 kHz
Frame rate : 46.875 FPS
Compression mode : Lossy
Stream size : 237 MiB (4%)
Title : Stereo
Language : English
Default : Yes
Alternate group : 1

iMPACT Slammiversary 2021

 

Complete name : iMPACT.Wrestling.Slammiversary.2021.720p.HDTV.x264-NWCHD.mp4
Format : MPEG-4
Format profile : Base Media
Codec ID : mp42
File size : 5.65 GiB
Duration : 2 h 52 min
Overall bit rate mode : Variable
Overall bit rate : 4 691 kb/s

Video
ID : 1
Format : AVC
Format/Info : Advanced Video
Duration : 2 h 52 min
Bit rate : 4 500 kb/s
Width : 1 280 pixels
Height : 720 pixels
Display aspect ratio : 16:9
Frame rate mode : Constant
Frame rate : 29.970 (30000/1001) FPS
Color space : YUV
Chroma subsampling : 4:2:0
Bit depth : 8 bits
Scan type : Progressive
Bits/(Pixel*Frame) : 0.163
Stream size : 5.41 GiB (96%)
Color range : Limited
Color primaries : BT.709
Transfer characteristics : BT.709
Matrix coefficients : BT.709
Codec configuration box : avc

iMPACT Slammiversary 2021

Audio
ID : 2
Format : AAC LC
Format/Info : Advanced Audio
Codec ID : mp4a-40-2
Duration : 2 h 52 min
Bit rate mode : Variable
Bit rate : 192 kb/s
Channel(s) : 2 channels
Channel layout : L R
Sampling rate : 48.0 kHz
Frame rate : 46.875 FPS
Compression mode : Lossy
Stream size : 237 MiB (4%)
Title : Stereo
Language : English
Default : Yes
Alternate group : 1

iMPACT Slammiversary 2021

 

Complete name : iMPACT.Wrestling.Slammiversary.2021.720p.HDTV.x264-NWCHD.mp4
Format : MPEG-4
Format profile : Base Media
Codec ID : mp42
File size : 5.65 GiB
Duration : 2 h 52 min
Overall bit rate mode : Variable
Overall bit rate : 4 691 kb/s

Video
ID : 1
Format : AVC
Format/Info : Advanced Video
Duration : 2 h 52 min
Bit rate : 4 500 kb/s
Width : 1 280 pixels
Height : 720 pixels
Display aspect ratio : 16:9
Frame rate mode : Constant
Frame rate : 29.970 (30000/1001) FPS
Color space : YUV
Chroma subsampling : 4:2:0
Bit depth : 8 bits
Scan type : Progressive
Bits/(Pixel*Frame) : 0.163
Stream size : 5.41 GiB (96%)
Color range : Limited
Color primaries : BT.709
Transfer characteristics : BT.709
Matrix coefficients : BT.709
Codec configuration box : avc

iMPACT Slammiversary 2021

Audio
ID : 2
Format : AAC LC
Format/Info : Advanced Audio
Codec ID : mp4a-40-2
Duration : 2 h 52 min
Bit rate mode : Variable
Bit rate : 192 kb/s
Channel(s) : 2 channels
Channel layout : L R
Sampling rate : 48.0 kHz
Frame rate : 46.875 FPS
Compression mode : Lossy
Stream size : 237 MiB (4%)
Title : Stereo
Language : English
Default : Yes
Alternate group : 1

iMPACT Slammiversary 2021

 

Complete name : iMPACT.Wrestling.Slammiversary.2021.720p.HDTV.x264-NWCHD.mp4
Format : MPEG-4
Format profile : Base Media
Codec ID : mp42
File size : 5.65 GiB
Duration : 2 h 52 min
Overall bit rate mode : Variable
Overall bit rate : 4 691 kb/s

Video
ID : 1
Format : AVC
Format/Info : Advanced Video
Duration : 2 h 52 min
Bit rate : 4 500 kb/s
Width : 1 280 pixels
Height : 720 pixels
Display aspect ratio : 16:9
Frame rate mode : Constant
Frame rate : 29.970 (30000/1001) FPS
Color space : YUV
Chroma subsampling : 4:2:0
Bit depth : 8 bits
Scan type : Progressive
Bits/(Pixel*Frame) : 0.163
Stream size : 5.41 GiB (96%)
Color range : Limited
Color primaries : BT.709
Transfer characteristics : BT.709
Matrix coefficients : BT.709
Codec configuration box : avc

iMPACT Slammiversary 2021

Audio
ID : 2
Format : AAC LC
Format/Info : Advanced Audio
Codec ID : mp4a-40-2
Duration : 2 h 52 min
Bit rate mode : Variable
Bit rate : 192 kb/s
Channel(s) : 2 channels
Channel layout : L R
Sampling rate : 48.0 kHz
Frame rate : 46.875 FPS
Compression mode : Lossy
Stream size : 237 MiB (4%)
Title : Stereo
Language : English
Default : Yes
Alternate group : 1

iMPACT Slammiversary 2021

 

Complete name : iMPACT.Wrestling.Slammiversary.2021.720p.HDTV.x264-NWCHD.mp4
Format : MPEG-4
Format profile : Base Media
Codec ID : mp42
File size : 5.65 GiB
Duration : 2 h 52 min
Overall bit rate mode : Variable
Overall bit rate : 4 691 kb/s

Video
ID : 1
Format : AVC
Format/Info : Advanced Video
Duration : 2 h 52 min
Bit rate : 4 500 kb/s
Width : 1 280 pixels
Height : 720 pixels
Display aspect ratio : 16:9
Frame rate mode : Constant
Frame rate : 29.970 (30000/1001) FPS
Color space : YUV
Chroma subsampling : 4:2:0
Bit depth : 8 bits
Scan type : Progressive
Bits/(Pixel*Frame) : 0.163
Stream size : 5.41 GiB (96%)
Color range : Limited
Color primaries : BT.709
Transfer characteristics : BT.709
Matrix coefficients : BT.709
Codec configuration box : avc

iMPACT Slammiversary 2021

Audio
ID : 2
Format : AAC LC
Format/Info : Advanced Audio
Codec ID : mp4a-40-2
Duration : 2 h 52 min
Bit rate mode : Variable
Bit rate : 192 kb/s
Channel(s) : 2 channels
Channel layout : L R
Sampling rate : 48.0 kHz
Frame rate : 46.875 FPS
Compression mode : Lossy
Stream size : 237 MiB (4%)
Title : Stereo
Language : English
Default : Yes
Alternate group : 1

iMPACT Slammiversary 2021

 

Complete name : iMPACT.Wrestling.Slammiversary.2021.720p.HDTV.x264-NWCHD.mp4
Format : MPEG-4
Format profile : Base Media
Codec ID : mp42
File size : 5.65 GiB
Duration : 2 h 52 min
Overall bit rate mode : Variable
Overall bit rate : 4 691 kb/s

Video
ID : 1
Format : AVC
Format/Info : Advanced Video
Duration : 2 h 52 min
Bit rate : 4 500 kb/s
Width : 1 280 pixels
Height : 720 pixels
Display aspect ratio : 16:9
Frame rate mode : Constant
Frame rate : 29.970 (30000/1001) FPS
Color space : YUV
Chroma subsampling : 4:2:0
Bit depth : 8 bits
Scan type : Progressive
Bits/(Pixel*Frame) : 0.163
Stream size : 5.41 GiB (96%)
Color range : Limited
Color primaries : BT.709
Transfer characteristics : BT.709
Matrix coefficients : BT.709
Codec configuration box : avc

iMPACT Slammiversary 2021

Audio
ID : 2
Format : AAC LC
Format/Info : Advanced Audio
Codec ID : mp4a-40-2
Duration : 2 h 52 min
Bit rate mode : Variable
Bit rate : 192 kb/s
Channel(s) : 2 channels
Channel layout : L R
Sampling rate : 48.0 kHz
Frame rate : 46.875 FPS
Compression mode : Lossy
Stream size : 237 MiB (4%)
Title : Stereo
Language : English
Default : Yes
Alternate group : 1

iMPACT Slammiversary 2021

 

Complete name : iMPACT.Wrestling.Slammiversary.2021.720p.HDTV.x264-NWCHD.mp4
Format : MPEG-4
Format profile : Base Media
Codec ID : mp42
File size : 5.65 GiB
Duration : 2 h 52 min
Overall bit rate mode : Variable
Overall bit rate : 4 691 kb/s

Video
ID : 1
Format : AVC
Format/Info : Advanced Video
Duration : 2 h 52 min
Bit rate : 4 500 kb/s
Width : 1 280 pixels
Height : 720 pixels
Display aspect ratio : 16:9
Frame rate mode : Constant
Frame rate : 29.970 (30000/1001) FPS
Color space : YUV
Chroma subsampling : 4:2:0
Bit depth : 8 bits
Scan type : Progressive
Bits/(Pixel*Frame) : 0.163
Stream size : 5.41 GiB (96%)
Color range : Limited
Color primaries : BT.709
Transfer characteristics : BT.709
Matrix coefficients : BT.709
Codec configuration box : avc

iMPACT Slammiversary 2021

Audio
ID : 2
Format : AAC LC
Format/Info : Advanced Audio
Codec ID : mp4a-40-2
Duration : 2 h 52 min
Bit rate mode : Variable
Bit rate : 192 kb/s
Channel(s) : 2 channels
Channel layout : L R
Sampling rate : 48.0 kHz
Frame rate : 46.875 FPS
Compression mode : Lossy
Stream size : 237 MiB (4%)
Title : Stereo
Language : English
Default : Yes
Alternate group : 1

iMPACT Slammiversary 2021

 

Complete name : iMPACT.Wrestling.Slammiversary.2021.720p.HDTV.x264-NWCHD.mp4
Format : MPEG-4
Format profile : Base Media
Codec ID : mp42
File size : 5.65 GiB
Duration : 2 h 52 min
Overall bit rate mode : Variable
Overall bit rate : 4 691 kb/s

Video
ID : 1
Format : AVC
Format/Info : Advanced Video
Duration : 2 h 52 min
Bit rate : 4 500 kb/s
Width : 1 280 pixels
Height : 720 pixels
Display aspect ratio : 16:9
Frame rate mode : Constant
Frame rate : 29.970 (30000/1001) FPS
Color space : YUV
Chroma subsampling : 4:2:0
Bit depth : 8 bits
Scan type : Progressive
Bits/(Pixel*Frame) : 0.163
Stream size : 5.41 GiB (96%)
Color range : Limited
Color primaries : BT.709
Transfer characteristics : BT.709
Matrix coefficients : BT.709
Codec configuration box : avc

iMPACT Slammiversary 2021

Audio
ID : 2
Format : AAC LC
Format/Info : Advanced Audio
Codec ID : mp4a-40-2
Duration : 2 h 52 min
Bit rate mode : Variable
Bit rate : 192 kb/s
Channel(s) : 2 channels
Channel layout : L R
Sampling rate : 48.0 kHz
Frame rate : 46.875 FPS
Compression mode : Lossy
Stream size : 237 MiB (4%)
Title : Stereo
Language : English
Default : Yes
Alternate group : 1

iMPACT Slammiversary 2021

 

Complete name : iMPACT.Wrestling.Slammiversary.2021.720p.HDTV.x264-NWCHD.mp4
Format : MPEG-4
Format profile : Base Media
Codec ID : mp42
File size : 5.65 GiB
Duration : 2 h 52 min
Overall bit rate mode : Variable
Overall bit rate : 4 691 kb/s

Video
ID : 1
Format : AVC
Format/Info : Advanced Video
Duration : 2 h 52 min
Bit rate : 4 500 kb/s
Width : 1 280 pixels
Height : 720 pixels
Display aspect ratio : 16:9
Frame rate mode : Constant
Frame rate : 29.970 (30000/1001) FPS
Color space : YUV
Chroma subsampling : 4:2:0
Bit depth : 8 bits
Scan type : Progressive
Bits/(Pixel*Frame) : 0.163
Stream size : 5.41 GiB (96%)
Color range : Limited
Color primaries : BT.709
Transfer characteristics : BT.709
Matrix coefficients : BT.709
Codec configuration box : avc

iMPACT Slammiversary 2021

Audio
ID : 2
Format : AAC LC
Format/Info : Advanced Audio
Codec ID : mp4a-40-2
Duration : 2 h 52 min
Bit rate mode : Variable
Bit rate : 192 kb/s
Channel(s) : 2 channels
Channel layout : L R
Sampling rate : 48.0 kHz
Frame rate : 46.875 FPS
Compression mode : Lossy
Stream size : 237 MiB (4%)
Title : Stereo
Language : English
Default : Yes
Alternate group : 1

iMPACT Slammiversary 2021

 

Complete name : iMPACT.Wrestling.Slammiversary.2021.720p.HDTV.x264-NWCHD.mp4
Format : MPEG-4
Format profile : Base Media
Codec ID : mp42
File size : 5.65 GiB
Duration : 2 h 52 min
Overall bit rate mode : Variable
Overall bit rate : 4 691 kb/s

Video
ID : 1
Format : AVC
Format/Info : Advanced Video
Duration : 2 h 52 min
Bit rate : 4 500 kb/s
Width : 1 280 pixels
Height : 720 pixels
Display aspect ratio : 16:9
Frame rate mode : Constant
Frame rate : 29.970 (30000/1001) FPS
Color space : YUV
Chroma subsampling : 4:2:0
Bit depth : 8 bits
Scan type : Progressive
Bits/(Pixel*Frame) : 0.163
Stream size : 5.41 GiB (96%)
Color range : Limited
Color primaries : BT.709
Transfer characteristics : BT.709
Matrix coefficients : BT.709
Codec configuration box : avc

iMPACT Slammiversary 2021

Audio
ID : 2
Format : AAC LC
Format/Info : Advanced Audio
Codec ID : mp4a-40-2
Duration : 2 h 52 min
Bit rate mode : Variable
Bit rate : 192 kb/s
Channel(s) : 2 channels
Channel layout : L R
Sampling rate : 48.0 kHz
Frame rate : 46.875 FPS
Compression mode : Lossy
Stream size : 237 MiB (4%)
Title : Stereo
Language : English
Default : Yes
Alternate group : 1

iMPACT Slammiversary 2021

 

Complete name : iMPACT.Wrestling.Slammiversary.2021.720p.HDTV.x264-NWCHD.mp4
Format : MPEG-4
Format profile : Base Media
Codec ID : mp42
File size : 5.65 GiB
Duration : 2 h 52 min
Overall bit rate mode : Variable
Overall bit rate : 4 691 kb/s

Video
ID : 1
Format : AVC
Format/Info : Advanced Video
Duration : 2 h 52 min
Bit rate : 4 500 kb/s
Width : 1 280 pixels
Height : 720 pixels
Display aspect ratio : 16:9
Frame rate mode : Constant
Frame rate : 29.970 (30000/1001) FPS
Color space : YUV
Chroma subsampling : 4:2:0
Bit depth : 8 bits
Scan type : Progressive
Bits/(Pixel*Frame) : 0.163
Stream size : 5.41 GiB (96%)
Color range : Limited
Color primaries : BT.709
Transfer characteristics : BT.709
Matrix coefficients : BT.709
Codec configuration box : avc

iMPACT Slammiversary 2021

Audio
ID : 2
Format : AAC LC
Format/Info : Advanced Audio
Codec ID : mp4a-40-2
Duration : 2 h 52 min
Bit rate mode : Variable
Bit rate : 192 kb/s
Channel(s) : 2 channels
Channel layout : L R
Sampling rate : 48.0 kHz
Frame rate : 46.875 FPS
Compression mode : Lossy
Stream size : 237 MiB (4%)
Title : Stereo
Language : English
Default : Yes
Alternate group : 1

iMPACT Slammiversary 2021

 

Complete name : iMPACT.Wrestling.Slammiversary.2021.720p.HDTV.x264-NWCHD.mp4
Format : MPEG-4
Format profile : Base Media
Codec ID : mp42
File size : 5.65 GiB
Duration : 2 h 52 min
Overall bit rate mode : Variable
Overall bit rate : 4 691 kb/s

Video
ID : 1
Format : AVC
Format/Info : Advanced Video
Duration : 2 h 52 min
Bit rate : 4 500 kb/s
Width : 1 280 pixels
Height : 720 pixels
Display aspect ratio : 16:9
Frame rate mode : Constant
Frame rate : 29.970 (30000/1001) FPS
Color space : YUV
Chroma subsampling : 4:2:0
Bit depth : 8 bits
Scan type : Progressive
Bits/(Pixel*Frame) : 0.163
Stream size : 5.41 GiB (96%)
Color range : Limited
Color primaries : BT.709
Transfer characteristics : BT.709
Matrix coefficients : BT.709
Codec configuration box : avc

iMPACT Slammiversary 2021

Audio
ID : 2
Format : AAC LC
Format/Info : Advanced Audio
Codec ID : mp4a-40-2
Duration : 2 h 52 min
Bit rate mode : Variable
Bit rate : 192 kb/s
Channel(s) : 2 channels
Channel layout : L R
Sampling rate : 48.0 kHz
Frame rate : 46.875 FPS
Compression mode : Lossy
Stream size : 237 MiB (4%)
Title : Stereo
Language : English
Default : Yes
Alternate group : 1

iMPACT Slammiversary 2021

 

Complete name : iMPACT.Wrestling.Slammiversary.2021.720p.HDTV.x264-NWCHD.mp4
Format : MPEG-4
Format profile : Base Media
Codec ID : mp42
File size : 5.65 GiB
Duration : 2 h 52 min
Overall bit rate mode : Variable
Overall bit rate : 4 691 kb/s

Video
ID : 1
Format : AVC
Format/Info : Advanced Video
Duration : 2 h 52 min
Bit rate : 4 500 kb/s
Width : 1 280 pixels
Height : 720 pixels
Display aspect ratio : 16:9
Frame rate mode : Constant
Frame rate : 29.970 (30000/1001) FPS
Color space : YUV
Chroma subsampling : 4:2:0
Bit depth : 8 bits
Scan type : Progressive
Bits/(Pixel*Frame) : 0.163
Stream size : 5.41 GiB (96%)
Color range : Limited
Color primaries : BT.709
Transfer characteristics : BT.709
Matrix coefficients : BT.709
Codec configuration box : avc

iMPACT Slammiversary 2021

Audio
ID : 2
Format : AAC LC
Format/Info : Advanced Audio
Codec ID : mp4a-40-2
Duration : 2 h 52 min
Bit rate mode : Variable
Bit rate : 192 kb/s
Channel(s) : 2 channels
Channel layout : L R
Sampling rate : 48.0 kHz
Frame rate : 46.875 FPS
Compression mode : Lossy
Stream size : 237 MiB (4%)
Title : Stereo
Language : English
Default : Yes
Alternate group : 1

iMPACT Slammiversary 2021

 

Complete name : iMPACT.Wrestling.Slammiversary.2021.720p.HDTV.x264-NWCHD.mp4
Format : MPEG-4
Format profile : Base Media
Codec ID : mp42
File size : 5.65 GiB
Duration : 2 h 52 min
Overall bit rate mode : Variable
Overall bit rate : 4 691 kb/s

Video
ID : 1
Format : AVC
Format/Info : Advanced Video
Duration : 2 h 52 min
Bit rate : 4 500 kb/s
Width : 1 280 pixels
Height : 720 pixels
Display aspect ratio : 16:9
Frame rate mode : Constant
Frame rate : 29.970 (30000/1001) FPS
Color space : YUV
Chroma subsampling : 4:2:0
Bit depth : 8 bits
Scan type : Progressive
Bits/(Pixel*Frame) : 0.163
Stream size : 5.41 GiB (96%)
Color range : Limited
Color primaries : BT.709
Transfer characteristics : BT.709
Matrix coefficients : BT.709
Codec configuration box : avc

iMPACT Slammiversary 2021

Audio
ID : 2
Format : AAC LC
Format/Info : Advanced Audio
Codec ID : mp4a-40-2
Duration : 2 h 52 min
Bit rate mode : Variable
Bit rate : 192 kb/s
Channel(s) : 2 channels
Channel layout : L R
Sampling rate : 48.0 kHz
Frame rate : 46.875 FPS
Compression mode : Lossy
Stream size : 237 MiB (4%)
Title : Stereo
Language : English
Default : Yes
Alternate group : 1

iMPACT Slammiversary 2021

 

Complete name : iMPACT.Wrestling.Slammiversary.2021.720p.HDTV.x264-NWCHD.mp4
Format : MPEG-4
Format profile : Base Media
Codec ID : mp42
File size : 5.65 GiB
Duration : 2 h 52 min
Overall bit rate mode : Variable
Overall bit rate : 4 691 kb/s

Video
ID : 1
Format : AVC
Format/Info : Advanced Video
Duration : 2 h 52 min
Bit rate : 4 500 kb/s
Width : 1 280 pixels
Height : 720 pixels
Display aspect ratio : 16:9
Frame rate mode : Constant
Frame rate : 29.970 (30000/1001) FPS
Color space : YUV
Chroma subsampling : 4:2:0
Bit depth : 8 bits
Scan type : Progressive
Bits/(Pixel*Frame) : 0.163
Stream size : 5.41 GiB (96%)
Color range : Limited
Color primaries : BT.709
Transfer characteristics : BT.709
Matrix coefficients : BT.709
Codec configuration box : avc

iMPACT Slammiversary 2021

Audio
ID : 2
Format : AAC LC
Format/Info : Advanced Audio
Codec ID : mp4a-40-2
Duration : 2 h 52 min
Bit rate mode : Variable
Bit rate : 192 kb/s
Channel(s) : 2 channels
Channel layout : L R
Sampling rate : 48.0 kHz
Frame rate : 46.875 FPS
Compression mode : Lossy
Stream size : 237 MiB (4%)
Title : Stereo
Language : English
Default : Yes
Alternate group : 1

iMPACT Slammiversary 2021

 

Complete name : iMPACT.Wrestling.Slammiversary.2021.720p.HDTV.x264-NWCHD.mp4
Format : MPEG-4
Format profile : Base Media
Codec ID : mp42
File size : 5.65 GiB
Duration : 2 h 52 min
Overall bit rate mode : Variable
Overall bit rate : 4 691 kb/s

Video
ID : 1
Format : AVC
Format/Info : Advanced Video
Duration : 2 h 52 min
Bit rate : 4 500 kb/s
Width : 1 280 pixels
Height : 720 pixels
Display aspect ratio : 16:9
Frame rate mode : Constant
Frame rate : 29.970 (30000/1001) FPS
Color space : YUV
Chroma subsampling : 4:2:0
Bit depth : 8 bits
Scan type : Progressive
Bits/(Pixel*Frame) : 0.163
Stream size : 5.41 GiB (96%)
Color range : Limited
Color primaries : BT.709
Transfer characteristics : BT.709
Matrix coefficients : BT.709
Codec configuration box : avc

iMPACT Slammiversary 2021

Audio
ID : 2
Format : AAC LC
Format/Info : Advanced Audio
Codec ID : mp4a-40-2
Duration : 2 h 52 min
Bit rate mode : Variable
Bit rate : 192 kb/s
Channel(s) : 2 channels
Channel layout : L R
Sampling rate : 48.0 kHz
Frame rate : 46.875 FPS
Compression mode : Lossy
Stream size : 237 MiB (4%)
Title : Stereo
Language : English
Default : Yes
Alternate group : 1

iMPACT Slammiversary 2021

 

Complete name : iMPACT.Wrestling.Slammiversary.2021.720p.HDTV.x264-NWCHD.mp4
Format : MPEG-4
Format profile : Base Media
Codec ID : mp42
File size : 5.65 GiB
Duration : 2 h 52 min
Overall bit rate mode : Variable
Overall bit rate : 4 691 kb/s

Video
ID : 1
Format : AVC
Format/Info : Advanced Video
Duration : 2 h 52 min
Bit rate : 4 500 kb/s
Width : 1 280 pixels
Height : 720 pixels
Display aspect ratio : 16:9
Frame rate mode : Constant
Frame rate : 29.970 (30000/1001) FPS
Color space : YUV
Chroma subsampling : 4:2:0
Bit depth : 8 bits
Scan type : Progressive
Bits/(Pixel*Frame) : 0.163
Stream size : 5.41 GiB (96%)
Color range : Limited
Color primaries : BT.709
Transfer characteristics : BT.709
Matrix coefficients : BT.709
Codec configuration box : avc

iMPACT Slammiversary 2021

Audio
ID : 2
Format : AAC LC
Format/Info : Advanced Audio
Codec ID : mp4a-40-2
Duration : 2 h 52 min
Bit rate mode : Variable
Bit rate : 192 kb/s
Channel(s) : 2 channels
Channel layout : L R
Sampling rate : 48.0 kHz
Frame rate : 46.875 FPS
Compression mode : Lossy
Stream size : 237 MiB (4%)
Title : Stereo
Language : English
Default : Yes
Alternate group : 1

iMPACT Slammiversary 2021

 

Complete name : iMPACT.Wrestling.Slammiversary.2021.720p.HDTV.x264-NWCHD.mp4
Format : MPEG-4
Format profile : Base Media
Codec ID : mp42
File size : 5.65 GiB
Duration : 2 h 52 min
Overall bit rate mode : Variable
Overall bit rate : 4 691 kb/s

Video
ID : 1
Format : AVC
Format/Info : Advanced Video
Duration : 2 h 52 min
Bit rate : 4 500 kb/s
Width : 1 280 pixels
Height : 720 pixels
Display aspect ratio : 16:9
Frame rate mode : Constant
Frame rate : 29.970 (30000/1001) FPS
Color space : YUV
Chroma subsampling : 4:2:0
Bit depth : 8 bits
Scan type : Progressive
Bits/(Pixel*Frame) : 0.163
Stream size : 5.41 GiB (96%)
Color range : Limited
Color primaries : BT.709
Transfer characteristics : BT.709
Matrix coefficients : BT.709
Codec configuration box : avc

iMPACT Slammiversary 2021

Audio
ID : 2
Format : AAC LC
Format/Info : Advanced Audio
Codec ID : mp4a-40-2
Duration : 2 h 52 min
Bit rate mode : Variable
Bit rate : 192 kb/s
Channel(s) : 2 channels
Channel layout : L R
Sampling rate : 48.0 kHz
Frame rate : 46.875 FPS
Compression mode : Lossy
Stream size : 237 MiB (4%)
Title : Stereo
Language : English
Default : Yes
Alternate group : 1

iMPACT Slammiversary 2021

 

Complete name : iMPACT.Wrestling.Slammiversary.2021.720p.HDTV.x264-NWCHD.mp4
Format : MPEG-4
Format profile : Base Media
Codec ID : mp42
File size : 5.65 GiB
Duration : 2 h 52 min
Overall bit rate mode : Variable
Overall bit rate : 4 691 kb/s

Video
ID : 1
Format : AVC
Format/Info : Advanced Video
Duration : 2 h 52 min
Bit rate : 4 500 kb/s
Width : 1 280 pixels
Height : 720 pixels
Display aspect ratio : 16:9
Frame rate mode : Constant
Frame rate : 29.970 (30000/1001) FPS
Color space : YUV
Chroma subsampling : 4:2:0
Bit depth : 8 bits
Scan type : Progressive
Bits/(Pixel*Frame) : 0.163
Stream size : 5.41 GiB (96%)
Color range : Limited
Color primaries : BT.709
Transfer characteristics : BT.709
Matrix coefficients : BT.709
Codec configuration box : avc

iMPACT Slammiversary 2021

Audio
ID : 2
Format : AAC LC
Format/Info : Advanced Audio
Codec ID : mp4a-40-2
Duration : 2 h 52 min
Bit rate mode : Variable
Bit rate : 192 kb/s
Channel(s) : 2 channels
Channel layout : L R
Sampling rate : 48.0 kHz
Frame rate : 46.875 FPS
Compression mode : Lossy
Stream size : 237 MiB (4%)
Title : Stereo
Language : English
Default : Yes
Alternate group : 1

iMPACT Slammiversary 2021

 

Complete name : iMPACT.Wrestling.Slammiversary.2021.720p.HDTV.x264-NWCHD.mp4
Format : MPEG-4
Format profile : Base Media
Codec ID : mp42
File size : 5.65 GiB
Duration : 2 h 52 min
Overall bit rate mode : Variable
Overall bit rate : 4 691 kb/s

Video
ID : 1
Format : AVC
Format/Info : Advanced Video
Duration : 2 h 52 min
Bit rate : 4 500 kb/s
Width : 1 280 pixels
Height : 720 pixels
Display aspect ratio : 16:9
Frame rate mode : Constant
Frame rate : 29.970 (30000/1001) FPS
Color space : YUV
Chroma subsampling : 4:2:0
Bit depth : 8 bits
Scan type : Progressive
Bits/(Pixel*Frame) : 0.163
Stream size : 5.41 GiB (96%)
Color range : Limited
Color primaries : BT.709
Transfer characteristics : BT.709
Matrix coefficients : BT.709
Codec configuration box : avc

iMPACT Slammiversary 2021

Audio
ID : 2
Format : AAC LC
Format/Info : Advanced Audio
Codec ID : mp4a-40-2
Duration : 2 h 52 min
Bit rate mode : Variable
Bit rate : 192 kb/s
Channel(s) : 2 channels
Channel layout : L R
Sampling rate : 48.0 kHz
Frame rate : 46.875 FPS
Compression mode : Lossy
Stream size : 237 MiB (4%)
Title : Stereo
Language : English
Default : Yes
Alternate group : 1

iMPACT Slammiversary 2021

 

 

 

[collapse]

 

 

https://dx-tv.com/

Leave a Reply

Your email address will not be published. Required fields are marked *

This site uses Akismet to reduce spam. Learn how your comment data is processed.

Previous Post
KSW 62

KSW 62 17 07 2021 Online Free- RUSS

Next Post
H2O Can't Take Me Alive 2021

H2O Can’t Take Me Alive 2021 Online Free