Impact Homecoming 2021 PPV 720p Online Free Replay

Impact Homecoming 2021 PPV 720p Online Free Replay DX-TV

Impact Homecoming 2021

Impact Homecoming 2021

 

 

 

Download Links with premium High Speed


 

Dopapk

 

 

Show Links

 

http://shrt10.com/NcjlVt8
http://shrt10.com/1vdxDDDD

 

[collapse]

 

 

Nitroflare

 

 

Show Links

 

http://shrt10.com/FheCf
http://shrt10.com/58hmckec

 

[collapse]

 

 

Rapidgator

 

 

Show Links

 

http://shrt10.com/848792fP
http://shrt10.com/vf0UuI2yo

 

[collapse]

 

 

Uploaded

 

 

Show Links

 

http://shrt10.com/NDLlIvl8S
http://shrt10.com/0rQ3xI03

 

[collapse]

 

 

Watch online

 

Server 1

 

 

 

 

watch now

 

 

 

 

Server-2

 

 

 

 

Impact Homecoming 2021

 

 

 

|Server-3

 

 

 

 

watch now

 

 

Uploaded By Site DX-TV.com

 

 

Show Info This Show

Impact Homecoming 2021

 

Complete name : Impact.Wrestling.Homecoming.2021.PPV.720p By DX-TV.com.mp4
Format : MPEG-4
Format profile : Base Media
Codec ID : isom
File size : 2.83 GiB
Duration : 2 h 49 min
Overall bit rate : 2 398 kb/s

Video
ID : 2
Format : AVC
Format/Info : Advanced Video
Duration : 2 h 49 min
Bit rate : 2 259 kb/s
Width : 1 280 pixels
Height : 720 pixels
Display aspect ratio : 16:9
Frame rate mode : Variable
Frame rate : 29.970 FPS
Color space : YUV
Chroma subsampling : 4:2:0
Bit depth : 8 bits
Scan type : Progressive
Bits/(Pixel*Frame) : 0.082
Stream size : 2.67 GiB
Codec configuration box : avc

Impact Homecoming 2021

Audio
ID : 1
Format : AAC LC
Format/Info : Advanced Audio
Codec ID : mp4a-40-2
Duration : 2 h 49 min
Bit rate mode : Constant
Bit rate : 129 kb/s
Channel(s) : 2 channels
Channel layout : L R
Sampling rate : 48.0 kHz
Frame rate : 46.875 FPS
Compression mode : Lossy
Stream size : 156 MiB
Default : Yes
Alternate group : 1

Complete name : Impact.Wrestling.Homecoming.2021.PPV.480 By DX-TV.com.mp4
Format : MPEG-4
Format profile : Base Media
Codec ID : isom
File size : 1.29 GiB
Duration : 2 h 49 min
Overall bit rate : 1 093 kb/s

Impact Homecoming 2021

Video
ID : 2
Format : AVC
Format/Info : Advanced Video
Duration : 2 h 49 min
Bit rate : 955 kb/s
Width : 854 pixels
Height : 480 pixels
Display aspect ratio : 16:9
Frame rate mode : Variable
Frame rate : 29.970 FPS
Color space : YUV
Chroma subsampling : 4:2:0
Bit depth : 8 bits
Scan type : Progressive
Bits/(Pixel*Frame) : 0.078
Stream size : 1.13 GiB
Codec configuration box : avcC

Audio
ID : 1
Format : AAC LC
Format/Info : Advanced Audio
Codec ID : mp4a-40-2
Duration : 2 h 49 min
Bit rate mode : Constant
Bit rate : 129 kb/s
Channel(s) : 2 channels
Channel layout : L R
Sampling rate : 48.0 kHz
Frame rate : 46.875 FPS
Compression mode : Lossy
Stream size : 156 MiB
Default : Yes
Alternate group : 1

Impact Homecoming 2021

Complete name : Impact.Wrestling.Homecoming.2021.PPV.720p By DX-TV.com.mp4
Format : MPEG-4
Format profile : Base Media
Codec ID : isom
File size : 2.83 GiB
Duration : 2 h 49 min
Overall bit rate : 2 398 kb/s

Video
ID : 2
Format : AVC
Format/Info : Advanced Video
Duration : 2 h 49 min
Bit rate : 2 259 kb/s
Width : 1 280 pixels
Height : 720 pixels
Display aspect ratio : 16:9
Frame rate mode : Variable
Frame rate : 29.970 FPS
Color space : YUV
Chroma subsampling : 4:2:0
Bit depth : 8 bits
Scan type : Progressive
Bits/(Pixel*Frame) : 0.082
Stream size : 2.67 GiB
Codec configuration box : avc

Impact Homecoming 2021

Audio
ID : 1
Format : AAC LC
Format/Info : Advanced Audio
Codec ID : mp4a-40-2
Duration : 2 h 49 min
Bit rate mode : Constant
Bit rate : 129 kb/s
Channel(s) : 2 channels
Channel layout : L R
Sampling rate : 48.0 kHz
Frame rate : 46.875 FPS
Compression mode : Lossy
Stream size : 156 MiB
Default : Yes
Alternate group : 1

Complete name : Impact.Wrestling.Homecoming.2021.PPV.480 By DX-TV.com.mp4
Format : MPEG-4
Format profile : Base Media
Codec ID : isom
File size : 1.29 GiB
Duration : 2 h 49 min
Overall bit rate : 1 093 kb/s

Impact Homecoming 2021

Video
ID : 2
Format : AVC
Format/Info : Advanced Video
Duration : 2 h 49 min
Bit rate : 955 kb/s
Width : 854 pixels
Height : 480 pixels
Display aspect ratio : 16:9
Frame rate mode : Variable
Frame rate : 29.970 FPS
Color space : YUV
Chroma subsampling : 4:2:0
Bit depth : 8 bits
Scan type : Progressive
Bits/(Pixel*Frame) : 0.078
Stream size : 1.13 GiB
Codec configuration box : avcC

Audio
ID : 1
Format : AAC LC
Format/Info : Advanced Audio
Codec ID : mp4a-40-2
Duration : 2 h 49 min
Bit rate mode : Constant
Bit rate : 129 kb/s
Channel(s) : 2 channels
Channel layout : L R
Sampling rate : 48.0 kHz
Frame rate : 46.875 FPS
Compression mode : Lossy
Stream size : 156 MiB
Default : Yes
Alternate group : 1

Impact Homecoming 2021

Complete name : Impact.Wrestling.Homecoming.2021.PPV.720p By DX-TV.com.mp4
Format : MPEG-4
Format profile : Base Media
Codec ID : isom
File size : 2.83 GiB
Duration : 2 h 49 min
Overall bit rate : 2 398 kb/s

Video
ID : 2
Format : AVC
Format/Info : Advanced Video
Duration : 2 h 49 min
Bit rate : 2 259 kb/s
Width : 1 280 pixels
Height : 720 pixels
Display aspect ratio : 16:9
Frame rate mode : Variable
Frame rate : 29.970 FPS
Color space : YUV
Chroma subsampling : 4:2:0
Bit depth : 8 bits
Scan type : Progressive
Bits/(Pixel*Frame) : 0.082
Stream size : 2.67 GiB
Codec configuration box : avc

Impact Homecoming 2021

Audio
ID : 1
Format : AAC LC
Format/Info : Advanced Audio
Codec ID : mp4a-40-2
Duration : 2 h 49 min
Bit rate mode : Constant
Bit rate : 129 kb/s
Channel(s) : 2 channels
Channel layout : L R
Sampling rate : 48.0 kHz
Frame rate : 46.875 FPS
Compression mode : Lossy
Stream size : 156 MiB
Default : Yes
Alternate group : 1

Complete name : Impact.Wrestling.Homecoming.2021.PPV.480 By DX-TV.com.mp4
Format : MPEG-4
Format profile : Base Media
Codec ID : isom
File size : 1.29 GiB
Duration : 2 h 49 min
Overall bit rate : 1 093 kb/s

Impact Homecoming 2021

Video
ID : 2
Format : AVC
Format/Info : Advanced Video
Duration : 2 h 49 min
Bit rate : 955 kb/s
Width : 854 pixels
Height : 480 pixels
Display aspect ratio : 16:9
Frame rate mode : Variable
Frame rate : 29.970 FPS
Color space : YUV
Chroma subsampling : 4:2:0
Bit depth : 8 bits
Scan type : Progressive
Bits/(Pixel*Frame) : 0.078
Stream size : 1.13 GiB
Codec configuration box : avcC

Audio
ID : 1
Format : AAC LC
Format/Info : Advanced Audio
Codec ID : mp4a-40-2
Duration : 2 h 49 min
Bit rate mode : Constant
Bit rate : 129 kb/s
Channel(s) : 2 channels
Channel layout : L R
Sampling rate : 48.0 kHz
Frame rate : 46.875 FPS
Compression mode : Lossy
Stream size : 156 MiB
Default : Yes
Alternate group : 1

Impact Homecoming 2021

Complete name : Impact.Wrestling.Homecoming.2021.PPV.720p By DX-TV.com.mp4
Format : MPEG-4
Format profile : Base Media
Codec ID : isom
File size : 2.83 GiB
Duration : 2 h 49 min
Overall bit rate : 2 398 kb/s

Video
ID : 2
Format : AVC
Format/Info : Advanced Video
Duration : 2 h 49 min
Bit rate : 2 259 kb/s
Width : 1 280 pixels
Height : 720 pixels
Display aspect ratio : 16:9
Frame rate mode : Variable
Frame rate : 29.970 FPS
Color space : YUV
Chroma subsampling : 4:2:0
Bit depth : 8 bits
Scan type : Progressive
Bits/(Pixel*Frame) : 0.082
Stream size : 2.67 GiB
Codec configuration box : avc

Impact Homecoming 2021

Audio
ID : 1
Format : AAC LC
Format/Info : Advanced Audio
Codec ID : mp4a-40-2
Duration : 2 h 49 min
Bit rate mode : Constant
Bit rate : 129 kb/s
Channel(s) : 2 channels
Channel layout : L R
Sampling rate : 48.0 kHz
Frame rate : 46.875 FPS
Compression mode : Lossy
Stream size : 156 MiB
Default : Yes
Alternate group : 1

Complete name : Impact.Wrestling.Homecoming.2021.PPV.480 By DX-TV.com.mp4
Format : MPEG-4
Format profile : Base Media
Codec ID : isom
File size : 1.29 GiB
Duration : 2 h 49 min
Overall bit rate : 1 093 kb/s

Impact Homecoming 2021

Video
ID : 2
Format : AVC
Format/Info : Advanced Video
Duration : 2 h 49 min
Bit rate : 955 kb/s
Width : 854 pixels
Height : 480 pixels
Display aspect ratio : 16:9
Frame rate mode : Variable
Frame rate : 29.970 FPS
Color space : YUV
Chroma subsampling : 4:2:0
Bit depth : 8 bits
Scan type : Progressive
Bits/(Pixel*Frame) : 0.078
Stream size : 1.13 GiB
Codec configuration box : avcC

Audio
ID : 1
Format : AAC LC
Format/Info : Advanced Audio
Codec ID : mp4a-40-2
Duration : 2 h 49 min
Bit rate mode : Constant
Bit rate : 129 kb/s
Channel(s) : 2 channels
Channel layout : L R
Sampling rate : 48.0 kHz
Frame rate : 46.875 FPS
Compression mode : Lossy
Stream size : 156 MiB
Default : Yes
Alternate group : 1

Impact Homecoming 2021

Complete name : Impact.Wrestling.Homecoming.2021.PPV.720p By DX-TV.com.mp4
Format : MPEG-4
Format profile : Base Media
Codec ID : isom
File size : 2.83 GiB
Duration : 2 h 49 min
Overall bit rate : 2 398 kb/s

Video
ID : 2
Format : AVC
Format/Info : Advanced Video
Duration : 2 h 49 min
Bit rate : 2 259 kb/s
Width : 1 280 pixels
Height : 720 pixels
Display aspect ratio : 16:9
Frame rate mode : Variable
Frame rate : 29.970 FPS
Color space : YUV
Chroma subsampling : 4:2:0
Bit depth : 8 bits
Scan type : Progressive
Bits/(Pixel*Frame) : 0.082
Stream size : 2.67 GiB
Codec configuration box : avc

Impact Homecoming 2021

Audio
ID : 1
Format : AAC LC
Format/Info : Advanced Audio
Codec ID : mp4a-40-2
Duration : 2 h 49 min
Bit rate mode : Constant
Bit rate : 129 kb/s
Channel(s) : 2 channels
Channel layout : L R
Sampling rate : 48.0 kHz
Frame rate : 46.875 FPS
Compression mode : Lossy
Stream size : 156 MiB
Default : Yes
Alternate group : 1

Complete name : Impact.Wrestling.Homecoming.2021.PPV.480 By DX-TV.com.mp4
Format : MPEG-4
Format profile : Base Media
Codec ID : isom
File size : 1.29 GiB
Duration : 2 h 49 min
Overall bit rate : 1 093 kb/s

Impact Homecoming 2021

Video
ID : 2
Format : AVC
Format/Info : Advanced Video
Duration : 2 h 49 min
Bit rate : 955 kb/s
Width : 854 pixels
Height : 480 pixels
Display aspect ratio : 16:9
Frame rate mode : Variable
Frame rate : 29.970 FPS
Color space : YUV
Chroma subsampling : 4:2:0
Bit depth : 8 bits
Scan type : Progressive
Bits/(Pixel*Frame) : 0.078
Stream size : 1.13 GiB
Codec configuration box : avcC

Audio
ID : 1
Format : AAC LC
Format/Info : Advanced Audio
Codec ID : mp4a-40-2
Duration : 2 h 49 min
Bit rate mode : Constant
Bit rate : 129 kb/s
Channel(s) : 2 channels
Channel layout : L R
Sampling rate : 48.0 kHz
Frame rate : 46.875 FPS
Compression mode : Lossy
Stream size : 156 MiB
Default : Yes
Alternate group : 1

Impact Homecoming 2021

Complete name : Impact.Wrestling.Homecoming.2021.PPV.720p By DX-TV.com.mp4
Format : MPEG-4
Format profile : Base Media
Codec ID : isom
File size : 2.83 GiB
Duration : 2 h 49 min
Overall bit rate : 2 398 kb/s

Video
ID : 2
Format : AVC
Format/Info : Advanced Video
Duration : 2 h 49 min
Bit rate : 2 259 kb/s
Width : 1 280 pixels
Height : 720 pixels
Display aspect ratio : 16:9
Frame rate mode : Variable
Frame rate : 29.970 FPS
Color space : YUV
Chroma subsampling : 4:2:0
Bit depth : 8 bits
Scan type : Progressive
Bits/(Pixel*Frame) : 0.082
Stream size : 2.67 GiB
Codec configuration box : avc

Impact Homecoming 2021

Audio
ID : 1
Format : AAC LC
Format/Info : Advanced Audio
Codec ID : mp4a-40-2
Duration : 2 h 49 min
Bit rate mode : Constant
Bit rate : 129 kb/s
Channel(s) : 2 channels
Channel layout : L R
Sampling rate : 48.0 kHz
Frame rate : 46.875 FPS
Compression mode : Lossy
Stream size : 156 MiB
Default : Yes
Alternate group : 1

Complete name : Impact.Wrestling.Homecoming.2021.PPV.480 By DX-TV.com.mp4
Format : MPEG-4
Format profile : Base Media
Codec ID : isom
File size : 1.29 GiB
Duration : 2 h 49 min
Overall bit rate : 1 093 kb/s

Impact Homecoming 2021

Video
ID : 2
Format : AVC
Format/Info : Advanced Video
Duration : 2 h 49 min
Bit rate : 955 kb/s
Width : 854 pixels
Height : 480 pixels
Display aspect ratio : 16:9
Frame rate mode : Variable
Frame rate : 29.970 FPS
Color space : YUV
Chroma subsampling : 4:2:0
Bit depth : 8 bits
Scan type : Progressive
Bits/(Pixel*Frame) : 0.078
Stream size : 1.13 GiB
Codec configuration box : avcC

Audio
ID : 1
Format : AAC LC
Format/Info : Advanced Audio
Codec ID : mp4a-40-2
Duration : 2 h 49 min
Bit rate mode : Constant
Bit rate : 129 kb/s
Channel(s) : 2 channels
Channel layout : L R
Sampling rate : 48.0 kHz
Frame rate : 46.875 FPS
Compression mode : Lossy
Stream size : 156 MiB
Default : Yes
Alternate group : 1

Impact Homecoming 2021

Complete name : Impact.Wrestling.Homecoming.2021.PPV.720p By DX-TV.com.mp4
Format : MPEG-4
Format profile : Base Media
Codec ID : isom
File size : 2.83 GiB
Duration : 2 h 49 min
Overall bit rate : 2 398 kb/s

Video
ID : 2
Format : AVC
Format/Info : Advanced Video
Duration : 2 h 49 min
Bit rate : 2 259 kb/s
Width : 1 280 pixels
Height : 720 pixels
Display aspect ratio : 16:9
Frame rate mode : Variable
Frame rate : 29.970 FPS
Color space : YUV
Chroma subsampling : 4:2:0
Bit depth : 8 bits
Scan type : Progressive
Bits/(Pixel*Frame) : 0.082
Stream size : 2.67 GiB
Codec configuration box : avc

Impact Homecoming 2021

Audio
ID : 1
Format : AAC LC
Format/Info : Advanced Audio
Codec ID : mp4a-40-2
Duration : 2 h 49 min
Bit rate mode : Constant
Bit rate : 129 kb/s
Channel(s) : 2 channels
Channel layout : L R
Sampling rate : 48.0 kHz
Frame rate : 46.875 FPS
Compression mode : Lossy
Stream size : 156 MiB
Default : Yes
Alternate group : 1

Complete name : Impact.Wrestling.Homecoming.2021.PPV.480 By DX-TV.com.mp4
Format : MPEG-4
Format profile : Base Media
Codec ID : isom
File size : 1.29 GiB
Duration : 2 h 49 min
Overall bit rate : 1 093 kb/s

Impact Homecoming 2021

Video
ID : 2
Format : AVC
Format/Info : Advanced Video
Duration : 2 h 49 min
Bit rate : 955 kb/s
Width : 854 pixels
Height : 480 pixels
Display aspect ratio : 16:9
Frame rate mode : Variable
Frame rate : 29.970 FPS
Color space : YUV
Chroma subsampling : 4:2:0
Bit depth : 8 bits
Scan type : Progressive
Bits/(Pixel*Frame) : 0.078
Stream size : 1.13 GiB
Codec configuration box : avcC

Audio
ID : 1
Format : AAC LC
Format/Info : Advanced Audio
Codec ID : mp4a-40-2
Duration : 2 h 49 min
Bit rate mode : Constant
Bit rate : 129 kb/s
Channel(s) : 2 channels
Channel layout : L R
Sampling rate : 48.0 kHz
Frame rate : 46.875 FPS
Compression mode : Lossy
Stream size : 156 MiB
Default : Yes
Alternate group : 1

Impact Homecoming 2021

Complete name : Impact.Wrestling.Homecoming.2021.PPV.720p By DX-TV.com.mp4
Format : MPEG-4
Format profile : Base Media
Codec ID : isom
File size : 2.83 GiB
Duration : 2 h 49 min
Overall bit rate : 2 398 kb/s

Video
ID : 2
Format : AVC
Format/Info : Advanced Video
Duration : 2 h 49 min
Bit rate : 2 259 kb/s
Width : 1 280 pixels
Height : 720 pixels
Display aspect ratio : 16:9
Frame rate mode : Variable
Frame rate : 29.970 FPS
Color space : YUV
Chroma subsampling : 4:2:0
Bit depth : 8 bits
Scan type : Progressive
Bits/(Pixel*Frame) : 0.082
Stream size : 2.67 GiB
Codec configuration box : avc

Impact Homecoming 2021

Audio
ID : 1
Format : AAC LC
Format/Info : Advanced Audio
Codec ID : mp4a-40-2
Duration : 2 h 49 min
Bit rate mode : Constant
Bit rate : 129 kb/s
Channel(s) : 2 channels
Channel layout : L R
Sampling rate : 48.0 kHz
Frame rate : 46.875 FPS
Compression mode : Lossy
Stream size : 156 MiB
Default : Yes
Alternate group : 1

Complete name : Impact.Wrestling.Homecoming.2021.PPV.480 By DX-TV.com.mp4
Format : MPEG-4
Format profile : Base Media
Codec ID : isom
File size : 1.29 GiB
Duration : 2 h 49 min
Overall bit rate : 1 093 kb/s

Impact Homecoming 2021

Video
ID : 2
Format : AVC
Format/Info : Advanced Video
Duration : 2 h 49 min
Bit rate : 955 kb/s
Width : 854 pixels
Height : 480 pixels
Display aspect ratio : 16:9
Frame rate mode : Variable
Frame rate : 29.970 FPS
Color space : YUV
Chroma subsampling : 4:2:0
Bit depth : 8 bits
Scan type : Progressive
Bits/(Pixel*Frame) : 0.078
Stream size : 1.13 GiB
Codec configuration box : avcC

Audio
ID : 1
Format : AAC LC
Format/Info : Advanced Audio
Codec ID : mp4a-40-2
Duration : 2 h 49 min
Bit rate mode : Constant
Bit rate : 129 kb/s
Channel(s) : 2 channels
Channel layout : L R
Sampling rate : 48.0 kHz
Frame rate : 46.875 FPS
Compression mode : Lossy
Stream size : 156 MiB
Default : Yes
Alternate group : 1

Impact Homecoming 2021

Complete name : Impact.Wrestling.Homecoming.2021.PPV.720p By DX-TV.com.mp4
Format : MPEG-4
Format profile : Base Media
Codec ID : isom
File size : 2.83 GiB
Duration : 2 h 49 min
Overall bit rate : 2 398 kb/s

Video
ID : 2
Format : AVC
Format/Info : Advanced Video
Duration : 2 h 49 min
Bit rate : 2 259 kb/s
Width : 1 280 pixels
Height : 720 pixels
Display aspect ratio : 16:9
Frame rate mode : Variable
Frame rate : 29.970 FPS
Color space : YUV
Chroma subsampling : 4:2:0
Bit depth : 8 bits
Scan type : Progressive
Bits/(Pixel*Frame) : 0.082
Stream size : 2.67 GiB
Codec configuration box : avc

Impact Homecoming 2021

Audio
ID : 1
Format : AAC LC
Format/Info : Advanced Audio
Codec ID : mp4a-40-2
Duration : 2 h 49 min
Bit rate mode : Constant
Bit rate : 129 kb/s
Channel(s) : 2 channels
Channel layout : L R
Sampling rate : 48.0 kHz
Frame rate : 46.875 FPS
Compression mode : Lossy
Stream size : 156 MiB
Default : Yes
Alternate group : 1

Complete name : Impact.Wrestling.Homecoming.2021.PPV.480 By DX-TV.com.mp4
Format : MPEG-4
Format profile : Base Media
Codec ID : isom
File size : 1.29 GiB
Duration : 2 h 49 min
Overall bit rate : 1 093 kb/s

Impact Homecoming 2021

Video
ID : 2
Format : AVC
Format/Info : Advanced Video
Duration : 2 h 49 min
Bit rate : 955 kb/s
Width : 854 pixels
Height : 480 pixels
Display aspect ratio : 16:9
Frame rate mode : Variable
Frame rate : 29.970 FPS
Color space : YUV
Chroma subsampling : 4:2:0
Bit depth : 8 bits
Scan type : Progressive
Bits/(Pixel*Frame) : 0.078
Stream size : 1.13 GiB
Codec configuration box : avcC

Audio
ID : 1
Format : AAC LC
Format/Info : Advanced Audio
Codec ID : mp4a-40-2
Duration : 2 h 49 min
Bit rate mode : Constant
Bit rate : 129 kb/s
Channel(s) : 2 channels
Channel layout : L R
Sampling rate : 48.0 kHz
Frame rate : 46.875 FPS
Compression mode : Lossy
Stream size : 156 MiB
Default : Yes
Alternate group : 1

Impact Homecoming 2021

Complete name : Impact.Wrestling.Homecoming.2021.PPV.720p By DX-TV.com.mp4
Format : MPEG-4
Format profile : Base Media
Codec ID : isom
File size : 2.83 GiB
Duration : 2 h 49 min
Overall bit rate : 2 398 kb/s

Video
ID : 2
Format : AVC
Format/Info : Advanced Video
Duration : 2 h 49 min
Bit rate : 2 259 kb/s
Width : 1 280 pixels
Height : 720 pixels
Display aspect ratio : 16:9
Frame rate mode : Variable
Frame rate : 29.970 FPS
Color space : YUV
Chroma subsampling : 4:2:0
Bit depth : 8 bits
Scan type : Progressive
Bits/(Pixel*Frame) : 0.082
Stream size : 2.67 GiB
Codec configuration box : avc

Impact Homecoming 2021

Audio
ID : 1
Format : AAC LC
Format/Info : Advanced Audio
Codec ID : mp4a-40-2
Duration : 2 h 49 min
Bit rate mode : Constant
Bit rate : 129 kb/s
Channel(s) : 2 channels
Channel layout : L R
Sampling rate : 48.0 kHz
Frame rate : 46.875 FPS
Compression mode : Lossy
Stream size : 156 MiB
Default : Yes
Alternate group : 1

Complete name : Impact.Wrestling.Homecoming.2021.PPV.480 By DX-TV.com.mp4
Format : MPEG-4
Format profile : Base Media
Codec ID : isom
File size : 1.29 GiB
Duration : 2 h 49 min
Overall bit rate : 1 093 kb/s

Impact Homecoming 2021

Video
ID : 2
Format : AVC
Format/Info : Advanced Video
Duration : 2 h 49 min
Bit rate : 955 kb/s
Width : 854 pixels
Height : 480 pixels
Display aspect ratio : 16:9
Frame rate mode : Variable
Frame rate : 29.970 FPS
Color space : YUV
Chroma subsampling : 4:2:0
Bit depth : 8 bits
Scan type : Progressive
Bits/(Pixel*Frame) : 0.078
Stream size : 1.13 GiB
Codec configuration box : avcC

Audio
ID : 1
Format : AAC LC
Format/Info : Advanced Audio
Codec ID : mp4a-40-2
Duration : 2 h 49 min
Bit rate mode : Constant
Bit rate : 129 kb/s
Channel(s) : 2 channels
Channel layout : L R
Sampling rate : 48.0 kHz
Frame rate : 46.875 FPS
Compression mode : Lossy
Stream size : 156 MiB
Default : Yes
Alternate group : 1

Impact Homecoming 2021

Complete name : Impact.Wrestling.Homecoming.2021.PPV.720p By DX-TV.com.mp4
Format : MPEG-4
Format profile : Base Media
Codec ID : isom
File size : 2.83 GiB
Duration : 2 h 49 min
Overall bit rate : 2 398 kb/s

Video
ID : 2
Format : AVC
Format/Info : Advanced Video
Duration : 2 h 49 min
Bit rate : 2 259 kb/s
Width : 1 280 pixels
Height : 720 pixels
Display aspect ratio : 16:9
Frame rate mode : Variable
Frame rate : 29.970 FPS
Color space : YUV
Chroma subsampling : 4:2:0
Bit depth : 8 bits
Scan type : Progressive
Bits/(Pixel*Frame) : 0.082
Stream size : 2.67 GiB
Codec configuration box : avc

Impact Homecoming 2021

Audio
ID : 1
Format : AAC LC
Format/Info : Advanced Audio
Codec ID : mp4a-40-2
Duration : 2 h 49 min
Bit rate mode : Constant
Bit rate : 129 kb/s
Channel(s) : 2 channels
Channel layout : L R
Sampling rate : 48.0 kHz
Frame rate : 46.875 FPS
Compression mode : Lossy
Stream size : 156 MiB
Default : Yes
Alternate group : 1

Complete name : Impact.Wrestling.Homecoming.2021.PPV.480 By DX-TV.com.mp4
Format : MPEG-4
Format profile : Base Media
Codec ID : isom
File size : 1.29 GiB
Duration : 2 h 49 min
Overall bit rate : 1 093 kb/s

Impact Homecoming 2021

Video
ID : 2
Format : AVC
Format/Info : Advanced Video
Duration : 2 h 49 min
Bit rate : 955 kb/s
Width : 854 pixels
Height : 480 pixels
Display aspect ratio : 16:9
Frame rate mode : Variable
Frame rate : 29.970 FPS
Color space : YUV
Chroma subsampling : 4:2:0
Bit depth : 8 bits
Scan type : Progressive
Bits/(Pixel*Frame) : 0.078
Stream size : 1.13 GiB
Codec configuration box : avcC

Audio
ID : 1
Format : AAC LC
Format/Info : Advanced Audio
Codec ID : mp4a-40-2
Duration : 2 h 49 min
Bit rate mode : Constant
Bit rate : 129 kb/s
Channel(s) : 2 channels
Channel layout : L R
Sampling rate : 48.0 kHz
Frame rate : 46.875 FPS
Compression mode : Lossy
Stream size : 156 MiB
Default : Yes
Alternate group : 1

Impact Homecoming 2021

Complete name : Impact.Wrestling.Homecoming.2021.PPV.720p By DX-TV.com.mp4
Format : MPEG-4
Format profile : Base Media
Codec ID : isom
File size : 2.83 GiB
Duration : 2 h 49 min
Overall bit rate : 2 398 kb/s

Video
ID : 2
Format : AVC
Format/Info : Advanced Video
Duration : 2 h 49 min
Bit rate : 2 259 kb/s
Width : 1 280 pixels
Height : 720 pixels
Display aspect ratio : 16:9
Frame rate mode : Variable
Frame rate : 29.970 FPS
Color space : YUV
Chroma subsampling : 4:2:0
Bit depth : 8 bits
Scan type : Progressive
Bits/(Pixel*Frame) : 0.082
Stream size : 2.67 GiB
Codec configuration box : avc

Impact Homecoming 2021

Audio
ID : 1
Format : AAC LC
Format/Info : Advanced Audio
Codec ID : mp4a-40-2
Duration : 2 h 49 min
Bit rate mode : Constant
Bit rate : 129 kb/s
Channel(s) : 2 channels
Channel layout : L R
Sampling rate : 48.0 kHz
Frame rate : 46.875 FPS
Compression mode : Lossy
Stream size : 156 MiB
Default : Yes
Alternate group : 1

Complete name : Impact.Wrestling.Homecoming.2021.PPV.480 By DX-TV.com.mp4
Format : MPEG-4
Format profile : Base Media
Codec ID : isom
File size : 1.29 GiB
Duration : 2 h 49 min
Overall bit rate : 1 093 kb/s

Impact Homecoming 2021

Video
ID : 2
Format : AVC
Format/Info : Advanced Video
Duration : 2 h 49 min
Bit rate : 955 kb/s
Width : 854 pixels
Height : 480 pixels
Display aspect ratio : 16:9
Frame rate mode : Variable
Frame rate : 29.970 FPS
Color space : YUV
Chroma subsampling : 4:2:0
Bit depth : 8 bits
Scan type : Progressive
Bits/(Pixel*Frame) : 0.078
Stream size : 1.13 GiB
Codec configuration box : avcC

Audio
ID : 1
Format : AAC LC
Format/Info : Advanced Audio
Codec ID : mp4a-40-2
Duration : 2 h 49 min
Bit rate mode : Constant
Bit rate : 129 kb/s
Channel(s) : 2 channels
Channel layout : L R
Sampling rate : 48.0 kHz
Frame rate : 46.875 FPS
Compression mode : Lossy
Stream size : 156 MiB
Default : Yes
Alternate group : 1

Impact Homecoming 2021

Complete name : Impact.Wrestling.Homecoming.2021.PPV.720p By DX-TV.com.mp4
Format : MPEG-4
Format profile : Base Media
Codec ID : isom
File size : 2.83 GiB
Duration : 2 h 49 min
Overall bit rate : 2 398 kb/s

Video
ID : 2
Format : AVC
Format/Info : Advanced Video
Duration : 2 h 49 min
Bit rate : 2 259 kb/s
Width : 1 280 pixels
Height : 720 pixels
Display aspect ratio : 16:9
Frame rate mode : Variable
Frame rate : 29.970 FPS
Color space : YUV
Chroma subsampling : 4:2:0
Bit depth : 8 bits
Scan type : Progressive
Bits/(Pixel*Frame) : 0.082
Stream size : 2.67 GiB
Codec configuration box : avc

Impact Homecoming 2021

Audio
ID : 1
Format : AAC LC
Format/Info : Advanced Audio
Codec ID : mp4a-40-2
Duration : 2 h 49 min
Bit rate mode : Constant
Bit rate : 129 kb/s
Channel(s) : 2 channels
Channel layout : L R
Sampling rate : 48.0 kHz
Frame rate : 46.875 FPS
Compression mode : Lossy
Stream size : 156 MiB
Default : Yes
Alternate group : 1

Complete name : Impact.Wrestling.Homecoming.2021.PPV.480 By DX-TV.com.mp4
Format : MPEG-4
Format profile : Base Media
Codec ID : isom
File size : 1.29 GiB
Duration : 2 h 49 min
Overall bit rate : 1 093 kb/s

Impact Homecoming 2021

Video
ID : 2
Format : AVC
Format/Info : Advanced Video
Duration : 2 h 49 min
Bit rate : 955 kb/s
Width : 854 pixels
Height : 480 pixels
Display aspect ratio : 16:9
Frame rate mode : Variable
Frame rate : 29.970 FPS
Color space : YUV
Chroma subsampling : 4:2:0
Bit depth : 8 bits
Scan type : Progressive
Bits/(Pixel*Frame) : 0.078
Stream size : 1.13 GiB
Codec configuration box : avcC

Audio
ID : 1
Format : AAC LC
Format/Info : Advanced Audio
Codec ID : mp4a-40-2
Duration : 2 h 49 min
Bit rate mode : Constant
Bit rate : 129 kb/s
Channel(s) : 2 channels
Channel layout : L R
Sampling rate : 48.0 kHz
Frame rate : 46.875 FPS
Compression mode : Lossy
Stream size : 156 MiB
Default : Yes
Alternate group : 1

Impact Homecoming 2021

Complete name : Impact.Wrestling.Homecoming.2021.PPV.720p By DX-TV.com.mp4
Format : MPEG-4
Format profile : Base Media
Codec ID : isom
File size : 2.83 GiB
Duration : 2 h 49 min
Overall bit rate : 2 398 kb/s

Video
ID : 2
Format : AVC
Format/Info : Advanced Video
Duration : 2 h 49 min
Bit rate : 2 259 kb/s
Width : 1 280 pixels
Height : 720 pixels
Display aspect ratio : 16:9
Frame rate mode : Variable
Frame rate : 29.970 FPS
Color space : YUV
Chroma subsampling : 4:2:0
Bit depth : 8 bits
Scan type : Progressive
Bits/(Pixel*Frame) : 0.082
Stream size : 2.67 GiB
Codec configuration box : avc

Impact Homecoming 2021

Audio
ID : 1
Format : AAC LC
Format/Info : Advanced Audio
Codec ID : mp4a-40-2
Duration : 2 h 49 min
Bit rate mode : Constant
Bit rate : 129 kb/s
Channel(s) : 2 channels
Channel layout : L R
Sampling rate : 48.0 kHz
Frame rate : 46.875 FPS
Compression mode : Lossy
Stream size : 156 MiB
Default : Yes
Alternate group : 1

Complete name : Impact.Wrestling.Homecoming.2021.PPV.480 By DX-TV.com.mp4
Format : MPEG-4
Format profile : Base Media
Codec ID : isom
File size : 1.29 GiB
Duration : 2 h 49 min
Overall bit rate : 1 093 kb/s

Impact Homecoming 2021

Video
ID : 2
Format : AVC
Format/Info : Advanced Video
Duration : 2 h 49 min
Bit rate : 955 kb/s
Width : 854 pixels
Height : 480 pixels
Display aspect ratio : 16:9
Frame rate mode : Variable
Frame rate : 29.970 FPS
Color space : YUV
Chroma subsampling : 4:2:0
Bit depth : 8 bits
Scan type : Progressive
Bits/(Pixel*Frame) : 0.078
Stream size : 1.13 GiB
Codec configuration box : avcC

Audio
ID : 1
Format : AAC LC
Format/Info : Advanced Audio
Codec ID : mp4a-40-2
Duration : 2 h 49 min
Bit rate mode : Constant
Bit rate : 129 kb/s
Channel(s) : 2 channels
Channel layout : L R
Sampling rate : 48.0 kHz
Frame rate : 46.875 FPS
Compression mode : Lossy
Stream size : 156 MiB
Default : Yes
Alternate group : 1

Impact Homecoming 2021

 

[collapse]

 

 

https://dx-tv.com/

Leave a Reply

Your email address will not be published. Required fields are marked *

This site uses Akismet to reduce spam. Learn how your comment data is processed.