ICW Wrestling GOTTA EARN IT IN THE PIT Online Free

ICW Wrestling GOTTA EARN IT IN THE PIT Online Free Replay DX-TV

ICW Wrestling

 ICW Wrestling

 

 

 

Download Links with High Speed


 

Dopapk

 

 

Show Links

 

http://shrt10.com/M3gXW

 

[collapse]

 

 

Nitroflare

 

 

Show Links

 

http://shrt10.com/7SCU3v

 

[collapse]

 

 

Rapidgator

 

 

Show Links

 

http://shrt10.com/Hhy7QRGN

 

[collapse]

 

 

Uploaded

 

 

Show Links

 

http://shrt10.com/jMNjw2

 

[collapse]

 

 

Watch online

 

Server 1

 

 

 

 

ICW Wrestling

 

 

 

 

Server-2

 

 

 

 

watch now

 

 

 

|Server-4

 

 

 

 

watch now

 

 

Uploaded By Site DX-TV.com

 

 

Show Info This Show

ICW Wrestling

 

Complete name : ICW – GOTTA EARN IT IN THE PIT.mp4
Format : MPEG-4
Format profile : Base Media
Codec ID : isom
File size : 997 MiB
Duration : 1 h 23 min
Overall bit rate mode : Variable
Overall bit rate : 1 673 kb/s

Video
ID : 1
Format : AVC
Format/Info : Advanced Video
Duration : 1 h 23 min
Bit rate : 1 536 kb/s
Width : 1 280 pixels
Height : 720 pixels
Display aspect ratio : 16:9
Frame rate mode : Variable
Frame rate : 29.970 (29970/1000) FPS
Minimum frame rate : 29.960 FPS
Maximum frame rate : 29.970 FPS
Color space : YUV
Chroma subsampling : 4:2:0
Bit depth : 8 bits
Scan type : Progressive
Bits/(Pixel*Frame) : 0.056
Stream size : 914 MiB (92%)
Codec configuration box : avcC

ICW Wrestling

Audio
ID : 2
Format : AAC LC
Codec ID : mp4a-40-2
Duration : 1 h 23 min
Bit rate mode : Variable
Bit rate : 132 kb/s
Maximum bit rate : 152 kb/s
Channel(s) : 2 channels
Channel layout : L R
Sampling rate : 48.0 kHz
Frame rate : 46.875 FPS (1024 SPF)
Compression mode : Lossy
Stream size : 77.4 MiB (8%)
Default : Yes
Alternate group : 1

ICW Wrestling

Complete name : ICW – GOTTA EARN IT IN THE PIT.mp4
Format : MPEG-4
Format profile : Base Media
Codec ID : isom
File size : 997 MiB
Duration : 1 h 23 min
Overall bit rate mode : Variable
Overall bit rate : 1 673 kb/s

Video
ID : 1
Format : AVC
Format/Info : Advanced Video
Duration : 1 h 23 min
Bit rate : 1 536 kb/s
Width : 1 280 pixels
Height : 720 pixels
Display aspect ratio : 16:9
Frame rate mode : Variable
Frame rate : 29.970 (29970/1000) FPS
Minimum frame rate : 29.960 FPS
Maximum frame rate : 29.970 FPS
Color space : YUV
Chroma subsampling : 4:2:0
Bit depth : 8 bits
Scan type : Progressive
Bits/(Pixel*Frame) : 0.056
Stream size : 914 MiB (92%)
Codec configuration box : avcC

ICW Wrestling

Audio
ID : 2
Format : AAC LC
Codec ID : mp4a-40-2
Duration : 1 h 23 min
Bit rate mode : Variable
Bit rate : 132 kb/s
Maximum bit rate : 152 kb/s
Channel(s) : 2 channels
Channel layout : L R
Sampling rate : 48.0 kHz
Frame rate : 46.875 FPS (1024 SPF)
Compression mode : Lossy
Stream size : 77.4 MiB (8%)
Default : Yes
Alternate group : 1

ICW Wrestling

Complete name : ICW – GOTTA EARN IT IN THE PIT.mp4
Format : MPEG-4
Format profile : Base Media
Codec ID : isom
File size : 997 MiB
Duration : 1 h 23 min
Overall bit rate mode : Variable
Overall bit rate : 1 673 kb/s

Video
ID : 1
Format : AVC
Format/Info : Advanced Video
Duration : 1 h 23 min
Bit rate : 1 536 kb/s
Width : 1 280 pixels
Height : 720 pixels
Display aspect ratio : 16:9
Frame rate mode : Variable
Frame rate : 29.970 (29970/1000) FPS
Minimum frame rate : 29.960 FPS
Maximum frame rate : 29.970 FPS
Color space : YUV
Chroma subsampling : 4:2:0
Bit depth : 8 bits
Scan type : Progressive
Bits/(Pixel*Frame) : 0.056
Stream size : 914 MiB (92%)
Codec configuration box : avcC

ICW Wrestling

Audio
ID : 2
Format : AAC LC
Codec ID : mp4a-40-2
Duration : 1 h 23 min
Bit rate mode : Variable
Bit rate : 132 kb/s
Maximum bit rate : 152 kb/s
Channel(s) : 2 channels
Channel layout : L R
Sampling rate : 48.0 kHz
Frame rate : 46.875 FPS (1024 SPF)
Compression mode : Lossy
Stream size : 77.4 MiB (8%)
Default : Yes
Alternate group : 1

ICW Wrestling

Complete name : ICW – GOTTA EARN IT IN THE PIT.mp4
Format : MPEG-4
Format profile : Base Media
Codec ID : isom
File size : 997 MiB
Duration : 1 h 23 min
Overall bit rate mode : Variable
Overall bit rate : 1 673 kb/s

Video
ID : 1
Format : AVC
Format/Info : Advanced Video
Duration : 1 h 23 min
Bit rate : 1 536 kb/s
Width : 1 280 pixels
Height : 720 pixels
Display aspect ratio : 16:9
Frame rate mode : Variable
Frame rate : 29.970 (29970/1000) FPS
Minimum frame rate : 29.960 FPS
Maximum frame rate : 29.970 FPS
Color space : YUV
Chroma subsampling : 4:2:0
Bit depth : 8 bits
Scan type : Progressive
Bits/(Pixel*Frame) : 0.056
Stream size : 914 MiB (92%)
Codec configuration box : avcC

ICW Wrestling

Audio
ID : 2
Format : AAC LC
Codec ID : mp4a-40-2
Duration : 1 h 23 min
Bit rate mode : Variable
Bit rate : 132 kb/s
Maximum bit rate : 152 kb/s
Channel(s) : 2 channels
Channel layout : L R
Sampling rate : 48.0 kHz
Frame rate : 46.875 FPS (1024 SPF)
Compression mode : Lossy
Stream size : 77.4 MiB (8%)
Default : Yes
Alternate group : 1

ICW Wrestling

Complete name : ICW – GOTTA EARN IT IN THE PIT.mp4
Format : MPEG-4
Format profile : Base Media
Codec ID : isom
File size : 997 MiB
Duration : 1 h 23 min
Overall bit rate mode : Variable
Overall bit rate : 1 673 kb/s

Video
ID : 1
Format : AVC
Format/Info : Advanced Video
Duration : 1 h 23 min
Bit rate : 1 536 kb/s
Width : 1 280 pixels
Height : 720 pixels
Display aspect ratio : 16:9
Frame rate mode : Variable
Frame rate : 29.970 (29970/1000) FPS
Minimum frame rate : 29.960 FPS
Maximum frame rate : 29.970 FPS
Color space : YUV
Chroma subsampling : 4:2:0
Bit depth : 8 bits
Scan type : Progressive
Bits/(Pixel*Frame) : 0.056
Stream size : 914 MiB (92%)
Codec configuration box : avcC

ICW Wrestling

Audio
ID : 2
Format : AAC LC
Codec ID : mp4a-40-2
Duration : 1 h 23 min
Bit rate mode : Variable
Bit rate : 132 kb/s
Maximum bit rate : 152 kb/s
Channel(s) : 2 channels
Channel layout : L R
Sampling rate : 48.0 kHz
Frame rate : 46.875 FPS (1024 SPF)
Compression mode : Lossy
Stream size : 77.4 MiB (8%)
Default : Yes
Alternate group : 1

ICW Wrestling

Complete name : ICW – GOTTA EARN IT IN THE PIT.mp4
Format : MPEG-4
Format profile : Base Media
Codec ID : isom
File size : 997 MiB
Duration : 1 h 23 min
Overall bit rate mode : Variable
Overall bit rate : 1 673 kb/s

Video
ID : 1
Format : AVC
Format/Info : Advanced Video
Duration : 1 h 23 min
Bit rate : 1 536 kb/s
Width : 1 280 pixels
Height : 720 pixels
Display aspect ratio : 16:9
Frame rate mode : Variable
Frame rate : 29.970 (29970/1000) FPS
Minimum frame rate : 29.960 FPS
Maximum frame rate : 29.970 FPS
Color space : YUV
Chroma subsampling : 4:2:0
Bit depth : 8 bits
Scan type : Progressive
Bits/(Pixel*Frame) : 0.056
Stream size : 914 MiB (92%)
Codec configuration box : avcC

ICW Wrestling

Audio
ID : 2
Format : AAC LC
Codec ID : mp4a-40-2
Duration : 1 h 23 min
Bit rate mode : Variable
Bit rate : 132 kb/s
Maximum bit rate : 152 kb/s
Channel(s) : 2 channels
Channel layout : L R
Sampling rate : 48.0 kHz
Frame rate : 46.875 FPS (1024 SPF)
Compression mode : Lossy
Stream size : 77.4 MiB (8%)
Default : Yes
Alternate group : 1

ICW Wrestling

Complete name : ICW – GOTTA EARN IT IN THE PIT.mp4
Format : MPEG-4
Format profile : Base Media
Codec ID : isom
File size : 997 MiB
Duration : 1 h 23 min
Overall bit rate mode : Variable
Overall bit rate : 1 673 kb/s

Video
ID : 1
Format : AVC
Format/Info : Advanced Video
Duration : 1 h 23 min
Bit rate : 1 536 kb/s
Width : 1 280 pixels
Height : 720 pixels
Display aspect ratio : 16:9
Frame rate mode : Variable
Frame rate : 29.970 (29970/1000) FPS
Minimum frame rate : 29.960 FPS
Maximum frame rate : 29.970 FPS
Color space : YUV
Chroma subsampling : 4:2:0
Bit depth : 8 bits
Scan type : Progressive
Bits/(Pixel*Frame) : 0.056
Stream size : 914 MiB (92%)
Codec configuration box : avcC

ICW Wrestling

Audio
ID : 2
Format : AAC LC
Codec ID : mp4a-40-2
Duration : 1 h 23 min
Bit rate mode : Variable
Bit rate : 132 kb/s
Maximum bit rate : 152 kb/s
Channel(s) : 2 channels
Channel layout : L R
Sampling rate : 48.0 kHz
Frame rate : 46.875 FPS (1024 SPF)
Compression mode : Lossy
Stream size : 77.4 MiB (8%)
Default : Yes
Alternate group : 1

ICW Wrestling

Complete name : ICW – GOTTA EARN IT IN THE PIT.mp4
Format : MPEG-4
Format profile : Base Media
Codec ID : isom
File size : 997 MiB
Duration : 1 h 23 min
Overall bit rate mode : Variable
Overall bit rate : 1 673 kb/s

Video
ID : 1
Format : AVC
Format/Info : Advanced Video
Duration : 1 h 23 min
Bit rate : 1 536 kb/s
Width : 1 280 pixels
Height : 720 pixels
Display aspect ratio : 16:9
Frame rate mode : Variable
Frame rate : 29.970 (29970/1000) FPS
Minimum frame rate : 29.960 FPS
Maximum frame rate : 29.970 FPS
Color space : YUV
Chroma subsampling : 4:2:0
Bit depth : 8 bits
Scan type : Progressive
Bits/(Pixel*Frame) : 0.056
Stream size : 914 MiB (92%)
Codec configuration box : avcC

ICW Wrestling

Audio
ID : 2
Format : AAC LC
Codec ID : mp4a-40-2
Duration : 1 h 23 min
Bit rate mode : Variable
Bit rate : 132 kb/s
Maximum bit rate : 152 kb/s
Channel(s) : 2 channels
Channel layout : L R
Sampling rate : 48.0 kHz
Frame rate : 46.875 FPS (1024 SPF)
Compression mode : Lossy
Stream size : 77.4 MiB (8%)
Default : Yes
Alternate group : 1

ICW Wrestling

Complete name : ICW – GOTTA EARN IT IN THE PIT.mp4
Format : MPEG-4
Format profile : Base Media
Codec ID : isom
File size : 997 MiB
Duration : 1 h 23 min
Overall bit rate mode : Variable
Overall bit rate : 1 673 kb/s

Video
ID : 1
Format : AVC
Format/Info : Advanced Video
Duration : 1 h 23 min
Bit rate : 1 536 kb/s
Width : 1 280 pixels
Height : 720 pixels
Display aspect ratio : 16:9
Frame rate mode : Variable
Frame rate : 29.970 (29970/1000) FPS
Minimum frame rate : 29.960 FPS
Maximum frame rate : 29.970 FPS
Color space : YUV
Chroma subsampling : 4:2:0
Bit depth : 8 bits
Scan type : Progressive
Bits/(Pixel*Frame) : 0.056
Stream size : 914 MiB (92%)
Codec configuration box : avcC

ICW Wrestling

Audio
ID : 2
Format : AAC LC
Codec ID : mp4a-40-2
Duration : 1 h 23 min
Bit rate mode : Variable
Bit rate : 132 kb/s
Maximum bit rate : 152 kb/s
Channel(s) : 2 channels
Channel layout : L R
Sampling rate : 48.0 kHz
Frame rate : 46.875 FPS (1024 SPF)
Compression mode : Lossy
Stream size : 77.4 MiB (8%)
Default : Yes
Alternate group : 1

ICW Wrestling

Complete name : ICW – GOTTA EARN IT IN THE PIT.mp4
Format : MPEG-4
Format profile : Base Media
Codec ID : isom
File size : 997 MiB
Duration : 1 h 23 min
Overall bit rate mode : Variable
Overall bit rate : 1 673 kb/s

Video
ID : 1
Format : AVC
Format/Info : Advanced Video
Duration : 1 h 23 min
Bit rate : 1 536 kb/s
Width : 1 280 pixels
Height : 720 pixels
Display aspect ratio : 16:9
Frame rate mode : Variable
Frame rate : 29.970 (29970/1000) FPS
Minimum frame rate : 29.960 FPS
Maximum frame rate : 29.970 FPS
Color space : YUV
Chroma subsampling : 4:2:0
Bit depth : 8 bits
Scan type : Progressive
Bits/(Pixel*Frame) : 0.056
Stream size : 914 MiB (92%)
Codec configuration box : avcC

ICW Wrestling

Audio
ID : 2
Format : AAC LC
Codec ID : mp4a-40-2
Duration : 1 h 23 min
Bit rate mode : Variable
Bit rate : 132 kb/s
Maximum bit rate : 152 kb/s
Channel(s) : 2 channels
Channel layout : L R
Sampling rate : 48.0 kHz
Frame rate : 46.875 FPS (1024 SPF)
Compression mode : Lossy
Stream size : 77.4 MiB (8%)
Default : Yes
Alternate group : 1

ICW Wrestling

Complete name : ICW – GOTTA EARN IT IN THE PIT.mp4
Format : MPEG-4
Format profile : Base Media
Codec ID : isom
File size : 997 MiB
Duration : 1 h 23 min
Overall bit rate mode : Variable
Overall bit rate : 1 673 kb/s

Video
ID : 1
Format : AVC
Format/Info : Advanced Video
Duration : 1 h 23 min
Bit rate : 1 536 kb/s
Width : 1 280 pixels
Height : 720 pixels
Display aspect ratio : 16:9
Frame rate mode : Variable
Frame rate : 29.970 (29970/1000) FPS
Minimum frame rate : 29.960 FPS
Maximum frame rate : 29.970 FPS
Color space : YUV
Chroma subsampling : 4:2:0
Bit depth : 8 bits
Scan type : Progressive
Bits/(Pixel*Frame) : 0.056
Stream size : 914 MiB (92%)
Codec configuration box : avcC

ICW Wrestling

Audio
ID : 2
Format : AAC LC
Codec ID : mp4a-40-2
Duration : 1 h 23 min
Bit rate mode : Variable
Bit rate : 132 kb/s
Maximum bit rate : 152 kb/s
Channel(s) : 2 channels
Channel layout : L R
Sampling rate : 48.0 kHz
Frame rate : 46.875 FPS (1024 SPF)
Compression mode : Lossy
Stream size : 77.4 MiB (8%)
Default : Yes
Alternate group : 1

ICW Wrestling

Complete name : ICW – GOTTA EARN IT IN THE PIT.mp4
Format : MPEG-4
Format profile : Base Media
Codec ID : isom
File size : 997 MiB
Duration : 1 h 23 min
Overall bit rate mode : Variable
Overall bit rate : 1 673 kb/s

Video
ID : 1
Format : AVC
Format/Info : Advanced Video
Duration : 1 h 23 min
Bit rate : 1 536 kb/s
Width : 1 280 pixels
Height : 720 pixels
Display aspect ratio : 16:9
Frame rate mode : Variable
Frame rate : 29.970 (29970/1000) FPS
Minimum frame rate : 29.960 FPS
Maximum frame rate : 29.970 FPS
Color space : YUV
Chroma subsampling : 4:2:0
Bit depth : 8 bits
Scan type : Progressive
Bits/(Pixel*Frame) : 0.056
Stream size : 914 MiB (92%)
Codec configuration box : avcC

ICW Wrestling

Audio
ID : 2
Format : AAC LC
Codec ID : mp4a-40-2
Duration : 1 h 23 min
Bit rate mode : Variable
Bit rate : 132 kb/s
Maximum bit rate : 152 kb/s
Channel(s) : 2 channels
Channel layout : L R
Sampling rate : 48.0 kHz
Frame rate : 46.875 FPS (1024 SPF)
Compression mode : Lossy
Stream size : 77.4 MiB (8%)
Default : Yes
Alternate group : 1

ICW Wrestling

Complete name : ICW – GOTTA EARN IT IN THE PIT.mp4
Format : MPEG-4
Format profile : Base Media
Codec ID : isom
File size : 997 MiB
Duration : 1 h 23 min
Overall bit rate mode : Variable
Overall bit rate : 1 673 kb/s

Video
ID : 1
Format : AVC
Format/Info : Advanced Video
Duration : 1 h 23 min
Bit rate : 1 536 kb/s
Width : 1 280 pixels
Height : 720 pixels
Display aspect ratio : 16:9
Frame rate mode : Variable
Frame rate : 29.970 (29970/1000) FPS
Minimum frame rate : 29.960 FPS
Maximum frame rate : 29.970 FPS
Color space : YUV
Chroma subsampling : 4:2:0
Bit depth : 8 bits
Scan type : Progressive
Bits/(Pixel*Frame) : 0.056
Stream size : 914 MiB (92%)
Codec configuration box : avcC

ICW Wrestling

Audio
ID : 2
Format : AAC LC
Codec ID : mp4a-40-2
Duration : 1 h 23 min
Bit rate mode : Variable
Bit rate : 132 kb/s
Maximum bit rate : 152 kb/s
Channel(s) : 2 channels
Channel layout : L R
Sampling rate : 48.0 kHz
Frame rate : 46.875 FPS (1024 SPF)
Compression mode : Lossy
Stream size : 77.4 MiB (8%)
Default : Yes
Alternate group : 1

ICW Wrestling

Complete name : ICW – GOTTA EARN IT IN THE PIT.mp4
Format : MPEG-4
Format profile : Base Media
Codec ID : isom
File size : 997 MiB
Duration : 1 h 23 min
Overall bit rate mode : Variable
Overall bit rate : 1 673 kb/s

Video
ID : 1
Format : AVC
Format/Info : Advanced Video
Duration : 1 h 23 min
Bit rate : 1 536 kb/s
Width : 1 280 pixels
Height : 720 pixels
Display aspect ratio : 16:9
Frame rate mode : Variable
Frame rate : 29.970 (29970/1000) FPS
Minimum frame rate : 29.960 FPS
Maximum frame rate : 29.970 FPS
Color space : YUV
Chroma subsampling : 4:2:0
Bit depth : 8 bits
Scan type : Progressive
Bits/(Pixel*Frame) : 0.056
Stream size : 914 MiB (92%)
Codec configuration box : avcC

ICW Wrestling

Audio
ID : 2
Format : AAC LC
Codec ID : mp4a-40-2
Duration : 1 h 23 min
Bit rate mode : Variable
Bit rate : 132 kb/s
Maximum bit rate : 152 kb/s
Channel(s) : 2 channels
Channel layout : L R
Sampling rate : 48.0 kHz
Frame rate : 46.875 FPS (1024 SPF)
Compression mode : Lossy
Stream size : 77.4 MiB (8%)
Default : Yes
Alternate group : 1

ICW Wrestling

Complete name : ICW – GOTTA EARN IT IN THE PIT.mp4
Format : MPEG-4
Format profile : Base Media
Codec ID : isom
File size : 997 MiB
Duration : 1 h 23 min
Overall bit rate mode : Variable
Overall bit rate : 1 673 kb/s

Video
ID : 1
Format : AVC
Format/Info : Advanced Video
Duration : 1 h 23 min
Bit rate : 1 536 kb/s
Width : 1 280 pixels
Height : 720 pixels
Display aspect ratio : 16:9
Frame rate mode : Variable
Frame rate : 29.970 (29970/1000) FPS
Minimum frame rate : 29.960 FPS
Maximum frame rate : 29.970 FPS
Color space : YUV
Chroma subsampling : 4:2:0
Bit depth : 8 bits
Scan type : Progressive
Bits/(Pixel*Frame) : 0.056
Stream size : 914 MiB (92%)
Codec configuration box : avcC

ICW Wrestling

Audio
ID : 2
Format : AAC LC
Codec ID : mp4a-40-2
Duration : 1 h 23 min
Bit rate mode : Variable
Bit rate : 132 kb/s
Maximum bit rate : 152 kb/s
Channel(s) : 2 channels
Channel layout : L R
Sampling rate : 48.0 kHz
Frame rate : 46.875 FPS (1024 SPF)
Compression mode : Lossy
Stream size : 77.4 MiB (8%)
Default : Yes
Alternate group : 1

ICW Wrestling

Complete name : ICW – GOTTA EARN IT IN THE PIT.mp4
Format : MPEG-4
Format profile : Base Media
Codec ID : isom
File size : 997 MiB
Duration : 1 h 23 min
Overall bit rate mode : Variable
Overall bit rate : 1 673 kb/s

Video
ID : 1
Format : AVC
Format/Info : Advanced Video
Duration : 1 h 23 min
Bit rate : 1 536 kb/s
Width : 1 280 pixels
Height : 720 pixels
Display aspect ratio : 16:9
Frame rate mode : Variable
Frame rate : 29.970 (29970/1000) FPS
Minimum frame rate : 29.960 FPS
Maximum frame rate : 29.970 FPS
Color space : YUV
Chroma subsampling : 4:2:0
Bit depth : 8 bits
Scan type : Progressive
Bits/(Pixel*Frame) : 0.056
Stream size : 914 MiB (92%)
Codec configuration box : avcC

ICW Wrestling

Audio
ID : 2
Format : AAC LC
Codec ID : mp4a-40-2
Duration : 1 h 23 min
Bit rate mode : Variable
Bit rate : 132 kb/s
Maximum bit rate : 152 kb/s
Channel(s) : 2 channels
Channel layout : L R
Sampling rate : 48.0 kHz
Frame rate : 46.875 FPS (1024 SPF)
Compression mode : Lossy
Stream size : 77.4 MiB (8%)
Default : Yes
Alternate group : 1

ICW Wrestling

Complete name : ICW – GOTTA EARN IT IN THE PIT.mp4
Format : MPEG-4
Format profile : Base Media
Codec ID : isom
File size : 997 MiB
Duration : 1 h 23 min
Overall bit rate mode : Variable
Overall bit rate : 1 673 kb/s

Video
ID : 1
Format : AVC
Format/Info : Advanced Video
Duration : 1 h 23 min
Bit rate : 1 536 kb/s
Width : 1 280 pixels
Height : 720 pixels
Display aspect ratio : 16:9
Frame rate mode : Variable
Frame rate : 29.970 (29970/1000) FPS
Minimum frame rate : 29.960 FPS
Maximum frame rate : 29.970 FPS
Color space : YUV
Chroma subsampling : 4:2:0
Bit depth : 8 bits
Scan type : Progressive
Bits/(Pixel*Frame) : 0.056
Stream size : 914 MiB (92%)
Codec configuration box : avcC

ICW Wrestling

Audio
ID : 2
Format : AAC LC
Codec ID : mp4a-40-2
Duration : 1 h 23 min
Bit rate mode : Variable
Bit rate : 132 kb/s
Maximum bit rate : 152 kb/s
Channel(s) : 2 channels
Channel layout : L R
Sampling rate : 48.0 kHz
Frame rate : 46.875 FPS (1024 SPF)
Compression mode : Lossy
Stream size : 77.4 MiB (8%)
Default : Yes
Alternate group : 1

ICW Wrestling

Complete name : ICW – GOTTA EARN IT IN THE PIT.mp4
Format : MPEG-4
Format profile : Base Media
Codec ID : isom
File size : 997 MiB
Duration : 1 h 23 min
Overall bit rate mode : Variable
Overall bit rate : 1 673 kb/s

Video
ID : 1
Format : AVC
Format/Info : Advanced Video
Duration : 1 h 23 min
Bit rate : 1 536 kb/s
Width : 1 280 pixels
Height : 720 pixels
Display aspect ratio : 16:9
Frame rate mode : Variable
Frame rate : 29.970 (29970/1000) FPS
Minimum frame rate : 29.960 FPS
Maximum frame rate : 29.970 FPS
Color space : YUV
Chroma subsampling : 4:2:0
Bit depth : 8 bits
Scan type : Progressive
Bits/(Pixel*Frame) : 0.056
Stream size : 914 MiB (92%)
Codec configuration box : avcC

ICW Wrestling

Audio
ID : 2
Format : AAC LC
Codec ID : mp4a-40-2
Duration : 1 h 23 min
Bit rate mode : Variable
Bit rate : 132 kb/s
Maximum bit rate : 152 kb/s
Channel(s) : 2 channels
Channel layout : L R
Sampling rate : 48.0 kHz
Frame rate : 46.875 FPS (1024 SPF)
Compression mode : Lossy
Stream size : 77.4 MiB (8%)
Default : Yes
Alternate group : 1

ICW Wrestling

Complete name : ICW – GOTTA EARN IT IN THE PIT.mp4
Format : MPEG-4
Format profile : Base Media
Codec ID : isom
File size : 997 MiB
Duration : 1 h 23 min
Overall bit rate mode : Variable
Overall bit rate : 1 673 kb/s

Video
ID : 1
Format : AVC
Format/Info : Advanced Video
Duration : 1 h 23 min
Bit rate : 1 536 kb/s
Width : 1 280 pixels
Height : 720 pixels
Display aspect ratio : 16:9
Frame rate mode : Variable
Frame rate : 29.970 (29970/1000) FPS
Minimum frame rate : 29.960 FPS
Maximum frame rate : 29.970 FPS
Color space : YUV
Chroma subsampling : 4:2:0
Bit depth : 8 bits
Scan type : Progressive
Bits/(Pixel*Frame) : 0.056
Stream size : 914 MiB (92%)
Codec configuration box : avcC

ICW Wrestling

Audio
ID : 2
Format : AAC LC
Codec ID : mp4a-40-2
Duration : 1 h 23 min
Bit rate mode : Variable
Bit rate : 132 kb/s
Maximum bit rate : 152 kb/s
Channel(s) : 2 channels
Channel layout : L R
Sampling rate : 48.0 kHz
Frame rate : 46.875 FPS (1024 SPF)
Compression mode : Lossy
Stream size : 77.4 MiB (8%)
Default : Yes
Alternate group : 1

ICW Wrestling

Complete name : ICW – GOTTA EARN IT IN THE PIT.mp4
Format : MPEG-4
Format profile : Base Media
Codec ID : isom
File size : 997 MiB
Duration : 1 h 23 min
Overall bit rate mode : Variable
Overall bit rate : 1 673 kb/s

Video
ID : 1
Format : AVC
Format/Info : Advanced Video
Duration : 1 h 23 min
Bit rate : 1 536 kb/s
Width : 1 280 pixels
Height : 720 pixels
Display aspect ratio : 16:9
Frame rate mode : Variable
Frame rate : 29.970 (29970/1000) FPS
Minimum frame rate : 29.960 FPS
Maximum frame rate : 29.970 FPS
Color space : YUV
Chroma subsampling : 4:2:0
Bit depth : 8 bits
Scan type : Progressive
Bits/(Pixel*Frame) : 0.056
Stream size : 914 MiB (92%)
Codec configuration box : avcC

ICW Wrestling

Audio
ID : 2
Format : AAC LC
Codec ID : mp4a-40-2
Duration : 1 h 23 min
Bit rate mode : Variable
Bit rate : 132 kb/s
Maximum bit rate : 152 kb/s
Channel(s) : 2 channels
Channel layout : L R
Sampling rate : 48.0 kHz
Frame rate : 46.875 FPS (1024 SPF)
Compression mode : Lossy
Stream size : 77.4 MiB (8%)
Default : Yes
Alternate group : 1

ICW Wrestling

Complete name : ICW – GOTTA EARN IT IN THE PIT.mp4
Format : MPEG-4
Format profile : Base Media
Codec ID : isom
File size : 997 MiB
Duration : 1 h 23 min
Overall bit rate mode : Variable
Overall bit rate : 1 673 kb/s

Video
ID : 1
Format : AVC
Format/Info : Advanced Video
Duration : 1 h 23 min
Bit rate : 1 536 kb/s
Width : 1 280 pixels
Height : 720 pixels
Display aspect ratio : 16:9
Frame rate mode : Variable
Frame rate : 29.970 (29970/1000) FPS
Minimum frame rate : 29.960 FPS
Maximum frame rate : 29.970 FPS
Color space : YUV
Chroma subsampling : 4:2:0
Bit depth : 8 bits
Scan type : Progressive
Bits/(Pixel*Frame) : 0.056
Stream size : 914 MiB (92%)
Codec configuration box : avcC

ICW Wrestling

Audio
ID : 2
Format : AAC LC
Codec ID : mp4a-40-2
Duration : 1 h 23 min
Bit rate mode : Variable
Bit rate : 132 kb/s
Maximum bit rate : 152 kb/s
Channel(s) : 2 channels
Channel layout : L R
Sampling rate : 48.0 kHz
Frame rate : 46.875 FPS (1024 SPF)
Compression mode : Lossy
Stream size : 77.4 MiB (8%)
Default : Yes
Alternate group : 1

ICW Wrestling

Complete name : ICW – GOTTA EARN IT IN THE PIT.mp4
Format : MPEG-4
Format profile : Base Media
Codec ID : isom
File size : 997 MiB
Duration : 1 h 23 min
Overall bit rate mode : Variable
Overall bit rate : 1 673 kb/s

Video
ID : 1
Format : AVC
Format/Info : Advanced Video
Duration : 1 h 23 min
Bit rate : 1 536 kb/s
Width : 1 280 pixels
Height : 720 pixels
Display aspect ratio : 16:9
Frame rate mode : Variable
Frame rate : 29.970 (29970/1000) FPS
Minimum frame rate : 29.960 FPS
Maximum frame rate : 29.970 FPS
Color space : YUV
Chroma subsampling : 4:2:0
Bit depth : 8 bits
Scan type : Progressive
Bits/(Pixel*Frame) : 0.056
Stream size : 914 MiB (92%)
Codec configuration box : avcC

ICW Wrestling

Audio
ID : 2
Format : AAC LC
Codec ID : mp4a-40-2
Duration : 1 h 23 min
Bit rate mode : Variable
Bit rate : 132 kb/s
Maximum bit rate : 152 kb/s
Channel(s) : 2 channels
Channel layout : L R
Sampling rate : 48.0 kHz
Frame rate : 46.875 FPS (1024 SPF)
Compression mode : Lossy
Stream size : 77.4 MiB (8%)
Default : Yes
Alternate group : 1

ICW Wrestling

Complete name : ICW – GOTTA EARN IT IN THE PIT.mp4
Format : MPEG-4
Format profile : Base Media
Codec ID : isom
File size : 997 MiB
Duration : 1 h 23 min
Overall bit rate mode : Variable
Overall bit rate : 1 673 kb/s

Video
ID : 1
Format : AVC
Format/Info : Advanced Video
Duration : 1 h 23 min
Bit rate : 1 536 kb/s
Width : 1 280 pixels
Height : 720 pixels
Display aspect ratio : 16:9
Frame rate mode : Variable
Frame rate : 29.970 (29970/1000) FPS
Minimum frame rate : 29.960 FPS
Maximum frame rate : 29.970 FPS
Color space : YUV
Chroma subsampling : 4:2:0
Bit depth : 8 bits
Scan type : Progressive
Bits/(Pixel*Frame) : 0.056
Stream size : 914 MiB (92%)
Codec configuration box : avcC

ICW Wrestling

Audio
ID : 2
Format : AAC LC
Codec ID : mp4a-40-2
Duration : 1 h 23 min
Bit rate mode : Variable
Bit rate : 132 kb/s
Maximum bit rate : 152 kb/s
Channel(s) : 2 channels
Channel layout : L R
Sampling rate : 48.0 kHz
Frame rate : 46.875 FPS (1024 SPF)
Compression mode : Lossy
Stream size : 77.4 MiB (8%)
Default : Yes
Alternate group : 1

ICW Wrestling

 

[collapse]

 

 

https://dx-tv.com/

Leave a Reply

Your email address will not be published. Required fields are marked *

This site uses Akismet to reduce spam. Learn how your comment data is processed.