ICW No Holds Barred Volume 17 720p Online Free

ICW No Holds Barred Volume 17 720p Online Free Replay DX-TV

Contents show

ICW No Holds Barred Volume 17

 ICW No Holds Barred Volume 17

 

 

 

Download Links with High Speed


 

Dopapk

 

 

Show Links

 

http://shrt10.com/uESUf

 

[collapse]

 

 

Nitroflare

 

 

Show Links

 

http://shrt10.com/ZtbvD1H

 

[collapse]

 

 

Rapidgator

 

 

Show Links

 

http://shrt10.com/Phz1NJ

 

[collapse]

 

 

Uploaded

 

 

Show Links

 

http://shrt10.com/q4jcZBL

 

[collapse]

 

 

Watch online

 

Server 1

 

 

 

 

watch now

 

 

 

 

Server-2

 

 

 

 

ICW No Holds Barred Volume 17

 

 

 

|Server-3

 

 

 

 

watch now

 

 

Uploaded By Site DX-TV.com

 

 

Show Info This Show

ICW No Holds Barred Volume 17

Name of the event: ICW No Holds Barred Volume 17
Date: 14.08.2021
Promotion: ICW No Holds Barred
Type: TV-Show
Location: San Antonio, Texas, USA
Arena: Vibes Event Center
Broadcast type: Live
Broadcast date: 14.08.2021
TV station/network: independentwrestling.tv
Commentary by: The Struggles & Ron Niemi

ICW No Holds Barred Volume 17

Complete name : ICW.NHB.2021.08.14.Volume.17.720p.WEB.h264-NCMP.mp4
Format : MPEG-4
Format profile : Base Media
Codec ID : isom
File size : 1.37 GiB
Duration : 1 h 56 min
Overall bit rate : 1 674 kb/s

Video
ID : 1
Format : AVC
Format/Info : Advanced Video
Duration : 1 h 56 min
Bit rate : 1 536 kb/s
Width : 1 280 pixels
Height : 720 pixels
Display aspect ratio : 16:9
Frame rate mode : Variable
Frame rate : 29.970 (29970/1000) FPS
Minimum frame rate : 29.960 FPS
Maximum frame rate : 29.970 FPS
Color space : YUV
Chroma subsampling : 4:2:0
Bit depth : 8 bits
Scan type : Progressive
Bits/(Pixel*Frame) : 0.056
Stream size : 1.26 GiB (92%)

ICW No Holds Barred Volume 17

Audio
ID : 2
Format : AAC LC
Format/Info : Advanced Audio
Codec ID : mp4a-40-2
Duration : 1 h 56 min
Bit rate mode : Constant
Bit rate : 129 kb/s
Channel(s) : 2 channels
Channel layout : L R
Sampling rate : 48.0 kHz
Frame rate : 46.875 FPS (1024 SPF)
Compression mode : Lossy
Stream size : 108 MiB (8%)
Default : Yes

ICW No Holds Barred Volume 17

The Chains come to Texas LIVE on IWTV!

American Deathmatch Championship: John Wayne Murdoch (c) vs Sadika
AKIRA vs MASADA
SHLAK vs Scot Summers
Dale Patricks vs Orin Veidt
Satu Jinn and Neil Diamond Cutter vs Headhunter A and Nightmare Freddie
Justin Kyle vs Brandon Kirk
Dale Patricks vs Orin Veidt vs Eric Ryan

ICW No Holds Barred Volume 17

Name of the event: ICW No Holds Barred Volume 17
Date: 14.08.2021
Promotion: ICW No Holds Barred
Type: TV-Show
Location: San Antonio, Texas, USA
Arena: Vibes Event Center
Broadcast type: Live
Broadcast date: 14.08.2021
TV station/network: independentwrestling.tv
Commentary by: The Struggles & Ron Niemi

ICW No Holds Barred Volume 17

Complete name : ICW.NHB.2021.08.14.Volume.17.720p.WEB.h264-NCMP.mp4
Format : MPEG-4
Format profile : Base Media
Codec ID : isom
File size : 1.37 GiB
Duration : 1 h 56 min
Overall bit rate : 1 674 kb/s

Video
ID : 1
Format : AVC
Format/Info : Advanced Video
Duration : 1 h 56 min
Bit rate : 1 536 kb/s
Width : 1 280 pixels
Height : 720 pixels
Display aspect ratio : 16:9
Frame rate mode : Variable
Frame rate : 29.970 (29970/1000) FPS
Minimum frame rate : 29.960 FPS
Maximum frame rate : 29.970 FPS
Color space : YUV
Chroma subsampling : 4:2:0
Bit depth : 8 bits
Scan type : Progressive
Bits/(Pixel*Frame) : 0.056
Stream size : 1.26 GiB (92%)

ICW No Holds Barred Volume 17

Audio
ID : 2
Format : AAC LC
Format/Info : Advanced Audio
Codec ID : mp4a-40-2
Duration : 1 h 56 min
Bit rate mode : Constant
Bit rate : 129 kb/s
Channel(s) : 2 channels
Channel layout : L R
Sampling rate : 48.0 kHz
Frame rate : 46.875 FPS (1024 SPF)
Compression mode : Lossy
Stream size : 108 MiB (8%)
Default : Yes

ICW No Holds Barred Volume 17

The Chains come to Texas LIVE on IWTV!

American Deathmatch Championship: John Wayne Murdoch (c) vs Sadika
AKIRA vs MASADA
SHLAK vs Scot Summers
Dale Patricks vs Orin Veidt
Satu Jinn and Neil Diamond Cutter vs Headhunter A and Nightmare Freddie
Justin Kyle vs Brandon Kirk
Dale Patricks vs Orin Veidt vs Eric Ryan

ICW No Holds Barred Volume 17

Name of the event: ICW No Holds Barred Volume 17
Date: 14.08.2021
Promotion: ICW No Holds Barred
Type: TV-Show
Location: San Antonio, Texas, USA
Arena: Vibes Event Center
Broadcast type: Live
Broadcast date: 14.08.2021
TV station/network: independentwrestling.tv
Commentary by: The Struggles & Ron Niemi

ICW No Holds Barred Volume 17

Complete name : ICW.NHB.2021.08.14.Volume.17.720p.WEB.h264-NCMP.mp4
Format : MPEG-4
Format profile : Base Media
Codec ID : isom
File size : 1.37 GiB
Duration : 1 h 56 min
Overall bit rate : 1 674 kb/s

Video
ID : 1
Format : AVC
Format/Info : Advanced Video
Duration : 1 h 56 min
Bit rate : 1 536 kb/s
Width : 1 280 pixels
Height : 720 pixels
Display aspect ratio : 16:9
Frame rate mode : Variable
Frame rate : 29.970 (29970/1000) FPS
Minimum frame rate : 29.960 FPS
Maximum frame rate : 29.970 FPS
Color space : YUV
Chroma subsampling : 4:2:0
Bit depth : 8 bits
Scan type : Progressive
Bits/(Pixel*Frame) : 0.056
Stream size : 1.26 GiB (92%)

ICW No Holds Barred Volume 17

Audio
ID : 2
Format : AAC LC
Format/Info : Advanced Audio
Codec ID : mp4a-40-2
Duration : 1 h 56 min
Bit rate mode : Constant
Bit rate : 129 kb/s
Channel(s) : 2 channels
Channel layout : L R
Sampling rate : 48.0 kHz
Frame rate : 46.875 FPS (1024 SPF)
Compression mode : Lossy
Stream size : 108 MiB (8%)
Default : Yes

ICW No Holds Barred Volume 17

The Chains come to Texas LIVE on IWTV!

American Deathmatch Championship: John Wayne Murdoch (c) vs Sadika
AKIRA vs MASADA
SHLAK vs Scot Summers
Dale Patricks vs Orin Veidt
Satu Jinn and Neil Diamond Cutter vs Headhunter A and Nightmare Freddie
Justin Kyle vs Brandon Kirk
Dale Patricks vs Orin Veidt vs Eric Ryan

ICW No Holds Barred Volume 17

Name of the event: ICW No Holds Barred Volume 17
Date: 14.08.2021
Promotion: ICW No Holds Barred
Type: TV-Show
Location: San Antonio, Texas, USA
Arena: Vibes Event Center
Broadcast type: Live
Broadcast date: 14.08.2021
TV station/network: independentwrestling.tv
Commentary by: The Struggles & Ron Niemi

ICW No Holds Barred Volume 17

Complete name : ICW.NHB.2021.08.14.Volume.17.720p.WEB.h264-NCMP.mp4
Format : MPEG-4
Format profile : Base Media
Codec ID : isom
File size : 1.37 GiB
Duration : 1 h 56 min
Overall bit rate : 1 674 kb/s

Video
ID : 1
Format : AVC
Format/Info : Advanced Video
Duration : 1 h 56 min
Bit rate : 1 536 kb/s
Width : 1 280 pixels
Height : 720 pixels
Display aspect ratio : 16:9
Frame rate mode : Variable
Frame rate : 29.970 (29970/1000) FPS
Minimum frame rate : 29.960 FPS
Maximum frame rate : 29.970 FPS
Color space : YUV
Chroma subsampling : 4:2:0
Bit depth : 8 bits
Scan type : Progressive
Bits/(Pixel*Frame) : 0.056
Stream size : 1.26 GiB (92%)

ICW No Holds Barred Volume 17

Audio
ID : 2
Format : AAC LC
Format/Info : Advanced Audio
Codec ID : mp4a-40-2
Duration : 1 h 56 min
Bit rate mode : Constant
Bit rate : 129 kb/s
Channel(s) : 2 channels
Channel layout : L R
Sampling rate : 48.0 kHz
Frame rate : 46.875 FPS (1024 SPF)
Compression mode : Lossy
Stream size : 108 MiB (8%)
Default : Yes

ICW No Holds Barred Volume 17

The Chains come to Texas LIVE on IWTV!

American Deathmatch Championship: John Wayne Murdoch (c) vs Sadika
AKIRA vs MASADA
SHLAK vs Scot Summers
Dale Patricks vs Orin Veidt
Satu Jinn and Neil Diamond Cutter vs Headhunter A and Nightmare Freddie
Justin Kyle vs Brandon Kirk
Dale Patricks vs Orin Veidt vs Eric Ryan

ICW No Holds Barred Volume 17

Name of the event: ICW No Holds Barred Volume 17
Date: 14.08.2021
Promotion: ICW No Holds Barred
Type: TV-Show
Location: San Antonio, Texas, USA
Arena: Vibes Event Center
Broadcast type: Live
Broadcast date: 14.08.2021
TV station/network: independentwrestling.tv
Commentary by: The Struggles & Ron Niemi

ICW No Holds Barred Volume 17

Complete name : ICW.NHB.2021.08.14.Volume.17.720p.WEB.h264-NCMP.mp4
Format : MPEG-4
Format profile : Base Media
Codec ID : isom
File size : 1.37 GiB
Duration : 1 h 56 min
Overall bit rate : 1 674 kb/s

Video
ID : 1
Format : AVC
Format/Info : Advanced Video
Duration : 1 h 56 min
Bit rate : 1 536 kb/s
Width : 1 280 pixels
Height : 720 pixels
Display aspect ratio : 16:9
Frame rate mode : Variable
Frame rate : 29.970 (29970/1000) FPS
Minimum frame rate : 29.960 FPS
Maximum frame rate : 29.970 FPS
Color space : YUV
Chroma subsampling : 4:2:0
Bit depth : 8 bits
Scan type : Progressive
Bits/(Pixel*Frame) : 0.056
Stream size : 1.26 GiB (92%)

ICW No Holds Barred Volume 17

Audio
ID : 2
Format : AAC LC
Format/Info : Advanced Audio
Codec ID : mp4a-40-2
Duration : 1 h 56 min
Bit rate mode : Constant
Bit rate : 129 kb/s
Channel(s) : 2 channels
Channel layout : L R
Sampling rate : 48.0 kHz
Frame rate : 46.875 FPS (1024 SPF)
Compression mode : Lossy
Stream size : 108 MiB (8%)
Default : Yes

ICW No Holds Barred Volume 17

The Chains come to Texas LIVE on IWTV!

American Deathmatch Championship: John Wayne Murdoch (c) vs Sadika
AKIRA vs MASADA
SHLAK vs Scot Summers
Dale Patricks vs Orin Veidt
Satu Jinn and Neil Diamond Cutter vs Headhunter A and Nightmare Freddie
Justin Kyle vs Brandon Kirk
Dale Patricks vs Orin Veidt vs Eric Ryan

ICW No Holds Barred Volume 17

Name of the event: ICW No Holds Barred Volume 17
Date: 14.08.2021
Promotion: ICW No Holds Barred
Type: TV-Show
Location: San Antonio, Texas, USA
Arena: Vibes Event Center
Broadcast type: Live
Broadcast date: 14.08.2021
TV station/network: independentwrestling.tv
Commentary by: The Struggles & Ron Niemi

ICW No Holds Barred Volume 17

Complete name : ICW.NHB.2021.08.14.Volume.17.720p.WEB.h264-NCMP.mp4
Format : MPEG-4
Format profile : Base Media
Codec ID : isom
File size : 1.37 GiB
Duration : 1 h 56 min
Overall bit rate : 1 674 kb/s

Video
ID : 1
Format : AVC
Format/Info : Advanced Video
Duration : 1 h 56 min
Bit rate : 1 536 kb/s
Width : 1 280 pixels
Height : 720 pixels
Display aspect ratio : 16:9
Frame rate mode : Variable
Frame rate : 29.970 (29970/1000) FPS
Minimum frame rate : 29.960 FPS
Maximum frame rate : 29.970 FPS
Color space : YUV
Chroma subsampling : 4:2:0
Bit depth : 8 bits
Scan type : Progressive
Bits/(Pixel*Frame) : 0.056
Stream size : 1.26 GiB (92%)

ICW No Holds Barred Volume 17

Audio
ID : 2
Format : AAC LC
Format/Info : Advanced Audio
Codec ID : mp4a-40-2
Duration : 1 h 56 min
Bit rate mode : Constant
Bit rate : 129 kb/s
Channel(s) : 2 channels
Channel layout : L R
Sampling rate : 48.0 kHz
Frame rate : 46.875 FPS (1024 SPF)
Compression mode : Lossy
Stream size : 108 MiB (8%)
Default : Yes

ICW No Holds Barred Volume 17

The Chains come to Texas LIVE on IWTV!

American Deathmatch Championship: John Wayne Murdoch (c) vs Sadika
AKIRA vs MASADA
SHLAK vs Scot Summers
Dale Patricks vs Orin Veidt
Satu Jinn and Neil Diamond Cutter vs Headhunter A and Nightmare Freddie
Justin Kyle vs Brandon Kirk
Dale Patricks vs Orin Veidt vs Eric Ryan

ICW No Holds Barred Volume 17

Name of the event: ICW No Holds Barred Volume 17
Date: 14.08.2021
Promotion: ICW No Holds Barred
Type: TV-Show
Location: San Antonio, Texas, USA
Arena: Vibes Event Center
Broadcast type: Live
Broadcast date: 14.08.2021
TV station/network: independentwrestling.tv
Commentary by: The Struggles & Ron Niemi

ICW No Holds Barred Volume 17

Complete name : ICW.NHB.2021.08.14.Volume.17.720p.WEB.h264-NCMP.mp4
Format : MPEG-4
Format profile : Base Media
Codec ID : isom
File size : 1.37 GiB
Duration : 1 h 56 min
Overall bit rate : 1 674 kb/s

Video
ID : 1
Format : AVC
Format/Info : Advanced Video
Duration : 1 h 56 min
Bit rate : 1 536 kb/s
Width : 1 280 pixels
Height : 720 pixels
Display aspect ratio : 16:9
Frame rate mode : Variable
Frame rate : 29.970 (29970/1000) FPS
Minimum frame rate : 29.960 FPS
Maximum frame rate : 29.970 FPS
Color space : YUV
Chroma subsampling : 4:2:0
Bit depth : 8 bits
Scan type : Progressive
Bits/(Pixel*Frame) : 0.056
Stream size : 1.26 GiB (92%)

ICW No Holds Barred Volume 17

Audio
ID : 2
Format : AAC LC
Format/Info : Advanced Audio
Codec ID : mp4a-40-2
Duration : 1 h 56 min
Bit rate mode : Constant
Bit rate : 129 kb/s
Channel(s) : 2 channels
Channel layout : L R
Sampling rate : 48.0 kHz
Frame rate : 46.875 FPS (1024 SPF)
Compression mode : Lossy
Stream size : 108 MiB (8%)
Default : Yes

ICW No Holds Barred Volume 17

The Chains come to Texas LIVE on IWTV!

American Deathmatch Championship: John Wayne Murdoch (c) vs Sadika
AKIRA vs MASADA
SHLAK vs Scot Summers
Dale Patricks vs Orin Veidt
Satu Jinn and Neil Diamond Cutter vs Headhunter A and Nightmare Freddie
Justin Kyle vs Brandon Kirk
Dale Patricks vs Orin Veidt vs Eric Ryan

ICW No Holds Barred Volume 17

Name of the event: ICW No Holds Barred Volume 17
Date: 14.08.2021
Promotion: ICW No Holds Barred
Type: TV-Show
Location: San Antonio, Texas, USA
Arena: Vibes Event Center
Broadcast type: Live
Broadcast date: 14.08.2021
TV station/network: independentwrestling.tv
Commentary by: The Struggles & Ron Niemi

ICW No Holds Barred Volume 17

Complete name : ICW.NHB.2021.08.14.Volume.17.720p.WEB.h264-NCMP.mp4
Format : MPEG-4
Format profile : Base Media
Codec ID : isom
File size : 1.37 GiB
Duration : 1 h 56 min
Overall bit rate : 1 674 kb/s

Video
ID : 1
Format : AVC
Format/Info : Advanced Video
Duration : 1 h 56 min
Bit rate : 1 536 kb/s
Width : 1 280 pixels
Height : 720 pixels
Display aspect ratio : 16:9
Frame rate mode : Variable
Frame rate : 29.970 (29970/1000) FPS
Minimum frame rate : 29.960 FPS
Maximum frame rate : 29.970 FPS
Color space : YUV
Chroma subsampling : 4:2:0
Bit depth : 8 bits
Scan type : Progressive
Bits/(Pixel*Frame) : 0.056
Stream size : 1.26 GiB (92%)

ICW No Holds Barred Volume 17

Audio
ID : 2
Format : AAC LC
Format/Info : Advanced Audio
Codec ID : mp4a-40-2
Duration : 1 h 56 min
Bit rate mode : Constant
Bit rate : 129 kb/s
Channel(s) : 2 channels
Channel layout : L R
Sampling rate : 48.0 kHz
Frame rate : 46.875 FPS (1024 SPF)
Compression mode : Lossy
Stream size : 108 MiB (8%)
Default : Yes

ICW No Holds Barred Volume 17

The Chains come to Texas LIVE on IWTV!

American Deathmatch Championship: John Wayne Murdoch (c) vs Sadika
AKIRA vs MASADA
SHLAK vs Scot Summers
Dale Patricks vs Orin Veidt
Satu Jinn and Neil Diamond Cutter vs Headhunter A and Nightmare Freddie
Justin Kyle vs Brandon Kirk
Dale Patricks vs Orin Veidt vs Eric Ryan

ICW No Holds Barred Volume 17

Name of the event: ICW No Holds Barred Volume 17
Date: 14.08.2021
Promotion: ICW No Holds Barred
Type: TV-Show
Location: San Antonio, Texas, USA
Arena: Vibes Event Center
Broadcast type: Live
Broadcast date: 14.08.2021
TV station/network: independentwrestling.tv
Commentary by: The Struggles & Ron Niemi

ICW No Holds Barred Volume 17

Complete name : ICW.NHB.2021.08.14.Volume.17.720p.WEB.h264-NCMP.mp4
Format : MPEG-4
Format profile : Base Media
Codec ID : isom
File size : 1.37 GiB
Duration : 1 h 56 min
Overall bit rate : 1 674 kb/s

Video
ID : 1
Format : AVC
Format/Info : Advanced Video
Duration : 1 h 56 min
Bit rate : 1 536 kb/s
Width : 1 280 pixels
Height : 720 pixels
Display aspect ratio : 16:9
Frame rate mode : Variable
Frame rate : 29.970 (29970/1000) FPS
Minimum frame rate : 29.960 FPS
Maximum frame rate : 29.970 FPS
Color space : YUV
Chroma subsampling : 4:2:0
Bit depth : 8 bits
Scan type : Progressive
Bits/(Pixel*Frame) : 0.056
Stream size : 1.26 GiB (92%)

ICW No Holds Barred Volume 17

Audio
ID : 2
Format : AAC LC
Format/Info : Advanced Audio
Codec ID : mp4a-40-2
Duration : 1 h 56 min
Bit rate mode : Constant
Bit rate : 129 kb/s
Channel(s) : 2 channels
Channel layout : L R
Sampling rate : 48.0 kHz
Frame rate : 46.875 FPS (1024 SPF)
Compression mode : Lossy
Stream size : 108 MiB (8%)
Default : Yes

ICW No Holds Barred Volume 17

The Chains come to Texas LIVE on IWTV!

American Deathmatch Championship: John Wayne Murdoch (c) vs Sadika
AKIRA vs MASADA
SHLAK vs Scot Summers
Dale Patricks vs Orin Veidt
Satu Jinn and Neil Diamond Cutter vs Headhunter A and Nightmare Freddie
Justin Kyle vs Brandon Kirk
Dale Patricks vs Orin Veidt vs Eric Ryan

ICW No Holds Barred Volume 17

Name of the event: ICW No Holds Barred Volume 17
Date: 14.08.2021
Promotion: ICW No Holds Barred
Type: TV-Show
Location: San Antonio, Texas, USA
Arena: Vibes Event Center
Broadcast type: Live
Broadcast date: 14.08.2021
TV station/network: independentwrestling.tv
Commentary by: The Struggles & Ron Niemi

ICW No Holds Barred Volume 17

Complete name : ICW.NHB.2021.08.14.Volume.17.720p.WEB.h264-NCMP.mp4
Format : MPEG-4
Format profile : Base Media
Codec ID : isom
File size : 1.37 GiB
Duration : 1 h 56 min
Overall bit rate : 1 674 kb/s

Video
ID : 1
Format : AVC
Format/Info : Advanced Video
Duration : 1 h 56 min
Bit rate : 1 536 kb/s
Width : 1 280 pixels
Height : 720 pixels
Display aspect ratio : 16:9
Frame rate mode : Variable
Frame rate : 29.970 (29970/1000) FPS
Minimum frame rate : 29.960 FPS
Maximum frame rate : 29.970 FPS
Color space : YUV
Chroma subsampling : 4:2:0
Bit depth : 8 bits
Scan type : Progressive
Bits/(Pixel*Frame) : 0.056
Stream size : 1.26 GiB (92%)

ICW No Holds Barred Volume 17

Audio
ID : 2
Format : AAC LC
Format/Info : Advanced Audio
Codec ID : mp4a-40-2
Duration : 1 h 56 min
Bit rate mode : Constant
Bit rate : 129 kb/s
Channel(s) : 2 channels
Channel layout : L R
Sampling rate : 48.0 kHz
Frame rate : 46.875 FPS (1024 SPF)
Compression mode : Lossy
Stream size : 108 MiB (8%)
Default : Yes

ICW No Holds Barred Volume 17

The Chains come to Texas LIVE on IWTV!

American Deathmatch Championship: John Wayne Murdoch (c) vs Sadika
AKIRA vs MASADA
SHLAK vs Scot Summers
Dale Patricks vs Orin Veidt
Satu Jinn and Neil Diamond Cutter vs Headhunter A and Nightmare Freddie
Justin Kyle vs Brandon Kirk
Dale Patricks vs Orin Veidt vs Eric Ryan

ICW No Holds Barred Volume 17

Name of the event: ICW No Holds Barred Volume 17
Date: 14.08.2021
Promotion: ICW No Holds Barred
Type: TV-Show
Location: San Antonio, Texas, USA
Arena: Vibes Event Center
Broadcast type: Live
Broadcast date: 14.08.2021
TV station/network: independentwrestling.tv
Commentary by: The Struggles & Ron Niemi

ICW No Holds Barred Volume 17

Complete name : ICW.NHB.2021.08.14.Volume.17.720p.WEB.h264-NCMP.mp4
Format : MPEG-4
Format profile : Base Media
Codec ID : isom
File size : 1.37 GiB
Duration : 1 h 56 min
Overall bit rate : 1 674 kb/s

Video
ID : 1
Format : AVC
Format/Info : Advanced Video
Duration : 1 h 56 min
Bit rate : 1 536 kb/s
Width : 1 280 pixels
Height : 720 pixels
Display aspect ratio : 16:9
Frame rate mode : Variable
Frame rate : 29.970 (29970/1000) FPS
Minimum frame rate : 29.960 FPS
Maximum frame rate : 29.970 FPS
Color space : YUV
Chroma subsampling : 4:2:0
Bit depth : 8 bits
Scan type : Progressive
Bits/(Pixel*Frame) : 0.056
Stream size : 1.26 GiB (92%)

ICW No Holds Barred Volume 17

Audio
ID : 2
Format : AAC LC
Format/Info : Advanced Audio
Codec ID : mp4a-40-2
Duration : 1 h 56 min
Bit rate mode : Constant
Bit rate : 129 kb/s
Channel(s) : 2 channels
Channel layout : L R
Sampling rate : 48.0 kHz
Frame rate : 46.875 FPS (1024 SPF)
Compression mode : Lossy
Stream size : 108 MiB (8%)
Default : Yes

ICW No Holds Barred Volume 17

The Chains come to Texas LIVE on IWTV!

American Deathmatch Championship: John Wayne Murdoch (c) vs Sadika
AKIRA vs MASADA
SHLAK vs Scot Summers
Dale Patricks vs Orin Veidt
Satu Jinn and Neil Diamond Cutter vs Headhunter A and Nightmare Freddie
Justin Kyle vs Brandon Kirk
Dale Patricks vs Orin Veidt vs Eric Ryan

ICW No Holds Barred Volume 17

Name of the event: ICW No Holds Barred Volume 17
Date: 14.08.2021
Promotion: ICW No Holds Barred
Type: TV-Show
Location: San Antonio, Texas, USA
Arena: Vibes Event Center
Broadcast type: Live
Broadcast date: 14.08.2021
TV station/network: independentwrestling.tv
Commentary by: The Struggles & Ron Niemi

ICW No Holds Barred Volume 17

Complete name : ICW.NHB.2021.08.14.Volume.17.720p.WEB.h264-NCMP.mp4
Format : MPEG-4
Format profile : Base Media
Codec ID : isom
File size : 1.37 GiB
Duration : 1 h 56 min
Overall bit rate : 1 674 kb/s

Video
ID : 1
Format : AVC
Format/Info : Advanced Video
Duration : 1 h 56 min
Bit rate : 1 536 kb/s
Width : 1 280 pixels
Height : 720 pixels
Display aspect ratio : 16:9
Frame rate mode : Variable
Frame rate : 29.970 (29970/1000) FPS
Minimum frame rate : 29.960 FPS
Maximum frame rate : 29.970 FPS
Color space : YUV
Chroma subsampling : 4:2:0
Bit depth : 8 bits
Scan type : Progressive
Bits/(Pixel*Frame) : 0.056
Stream size : 1.26 GiB (92%)

ICW No Holds Barred Volume 17

Audio
ID : 2
Format : AAC LC
Format/Info : Advanced Audio
Codec ID : mp4a-40-2
Duration : 1 h 56 min
Bit rate mode : Constant
Bit rate : 129 kb/s
Channel(s) : 2 channels
Channel layout : L R
Sampling rate : 48.0 kHz
Frame rate : 46.875 FPS (1024 SPF)
Compression mode : Lossy
Stream size : 108 MiB (8%)
Default : Yes

ICW No Holds Barred Volume 17

The Chains come to Texas LIVE on IWTV!

American Deathmatch Championship: John Wayne Murdoch (c) vs Sadika
AKIRA vs MASADA
SHLAK vs Scot Summers
Dale Patricks vs Orin Veidt
Satu Jinn and Neil Diamond Cutter vs Headhunter A and Nightmare Freddie
Justin Kyle vs Brandon Kirk
Dale Patricks vs Orin Veidt vs Eric Ryan

ICW No Holds Barred Volume 17

Name of the event: ICW No Holds Barred Volume 17
Date: 14.08.2021
Promotion: ICW No Holds Barred
Type: TV-Show
Location: San Antonio, Texas, USA
Arena: Vibes Event Center
Broadcast type: Live
Broadcast date: 14.08.2021
TV station/network: independentwrestling.tv
Commentary by: The Struggles & Ron Niemi

ICW No Holds Barred Volume 17

Complete name : ICW.NHB.2021.08.14.Volume.17.720p.WEB.h264-NCMP.mp4
Format : MPEG-4
Format profile : Base Media
Codec ID : isom
File size : 1.37 GiB
Duration : 1 h 56 min
Overall bit rate : 1 674 kb/s

Video
ID : 1
Format : AVC
Format/Info : Advanced Video
Duration : 1 h 56 min
Bit rate : 1 536 kb/s
Width : 1 280 pixels
Height : 720 pixels
Display aspect ratio : 16:9
Frame rate mode : Variable
Frame rate : 29.970 (29970/1000) FPS
Minimum frame rate : 29.960 FPS
Maximum frame rate : 29.970 FPS
Color space : YUV
Chroma subsampling : 4:2:0
Bit depth : 8 bits
Scan type : Progressive
Bits/(Pixel*Frame) : 0.056
Stream size : 1.26 GiB (92%)

ICW No Holds Barred Volume 17

Audio
ID : 2
Format : AAC LC
Format/Info : Advanced Audio
Codec ID : mp4a-40-2
Duration : 1 h 56 min
Bit rate mode : Constant
Bit rate : 129 kb/s
Channel(s) : 2 channels
Channel layout : L R
Sampling rate : 48.0 kHz
Frame rate : 46.875 FPS (1024 SPF)
Compression mode : Lossy
Stream size : 108 MiB (8%)
Default : Yes

ICW No Holds Barred Volume 17

The Chains come to Texas LIVE on IWTV!

American Deathmatch Championship: John Wayne Murdoch (c) vs Sadika
AKIRA vs MASADA
SHLAK vs Scot Summers
Dale Patricks vs Orin Veidt
Satu Jinn and Neil Diamond Cutter vs Headhunter A and Nightmare Freddie
Justin Kyle vs Brandon Kirk
Dale Patricks vs Orin Veidt vs Eric Ryan

ICW No Holds Barred Volume 17

Name of the event: ICW No Holds Barred Volume 17
Date: 14.08.2021
Promotion: ICW No Holds Barred
Type: TV-Show
Location: San Antonio, Texas, USA
Arena: Vibes Event Center
Broadcast type: Live
Broadcast date: 14.08.2021
TV station/network: independentwrestling.tv
Commentary by: The Struggles & Ron Niemi

ICW No Holds Barred Volume 17

Complete name : ICW.NHB.2021.08.14.Volume.17.720p.WEB.h264-NCMP.mp4
Format : MPEG-4
Format profile : Base Media
Codec ID : isom
File size : 1.37 GiB
Duration : 1 h 56 min
Overall bit rate : 1 674 kb/s

Video
ID : 1
Format : AVC
Format/Info : Advanced Video
Duration : 1 h 56 min
Bit rate : 1 536 kb/s
Width : 1 280 pixels
Height : 720 pixels
Display aspect ratio : 16:9
Frame rate mode : Variable
Frame rate : 29.970 (29970/1000) FPS
Minimum frame rate : 29.960 FPS
Maximum frame rate : 29.970 FPS
Color space : YUV
Chroma subsampling : 4:2:0
Bit depth : 8 bits
Scan type : Progressive
Bits/(Pixel*Frame) : 0.056
Stream size : 1.26 GiB (92%)

ICW No Holds Barred Volume 17

Audio
ID : 2
Format : AAC LC
Format/Info : Advanced Audio
Codec ID : mp4a-40-2
Duration : 1 h 56 min
Bit rate mode : Constant
Bit rate : 129 kb/s
Channel(s) : 2 channels
Channel layout : L R
Sampling rate : 48.0 kHz
Frame rate : 46.875 FPS (1024 SPF)
Compression mode : Lossy
Stream size : 108 MiB (8%)
Default : Yes

ICW No Holds Barred Volume 17

The Chains come to Texas LIVE on IWTV!

American Deathmatch Championship: John Wayne Murdoch (c) vs Sadika
AKIRA vs MASADA
SHLAK vs Scot Summers
Dale Patricks vs Orin Veidt
Satu Jinn and Neil Diamond Cutter vs Headhunter A and Nightmare Freddie
Justin Kyle vs Brandon Kirk
Dale Patricks vs Orin Veidt vs Eric Ryan

ICW No Holds Barred Volume 17

 

[collapse]

 

 

https://dx-tv.com/

Leave a Reply

Your email address will not be published. Required fields are marked *

This site uses Akismet to reduce spam. Learn how your comment data is processed.