ICW No Holds Barred Volume 10 2021 02 28 DX-TV

ICW No Holds Barred Volume 10 2021 02 28 DX-TV

ICW No Holds Barred Volume 10

 ICW No Holds Barred Volume 10

 

 

 

Download Links with High Speed


Dopapk

 

 

Show Links

 

http://shrt10.com/aegiVl8

 

[collapse]

 

 

Nitroflare

 

 

Show Links

 

http://shrt10.com/37DCgZ0E

 

[collapse]

 

 

Rapidgator

 

 

Show Links

 

http://shrt10.com/evCxe

 

[collapse]

 

 

Uploaded

 

 

Show Links

 

http://shrt10.com/yBvpeKJ2

 

[collapse]

 

 

Watch online

 

Server 1

 

 

 

 

ICW No Holds Barred

 

 

 

 

Server-2

 

 

 

 

ICW No Holds Barred

 

 

 

|Server-3

 

 

 

 

watch now

 

 

Uploaded By Site DX-TV.com

 

 

Show Info This Show

 

ICW NO HOLDS BARRED

Sunday, February 28th, 2021

From Port Richey, Florida – Featuring:

  • Nolan Edward vs Tony Deppen
  • Gary Jay vs Justin Kyle
  • AKIRA vs Ruben Steel
  • SHLAK vs Alex Ocean
  • Shane Mercer vs Neil Diamond Cutter
  • Reed Bentley vs Atticus Cogar
  • John Wayne Murdoch vs Brandon Kirk

Complete name : ICW.2021.02.28.ICW.No.Holds.Barred.Volume.10.mp4
Format : MPEG-4
Format profile : Base Media
File size : 2.22 GiB
Duration : 2 h 18 min
Overall bit rate : 2 292 kb/s

ICW No Holds Barred

Video
ID : 1
Format : AVC
Duration : 2 h 18 min
Bit rate : 2 120 kb/s
Width : 1 280 pixels
Height : 720 pixels
Display aspect ratio : 16:9
Frame rate mode : Variable
Frame rate : 31.027 FPS
Minimum frame rate : 9.817 FPS
Maximum frame rate : 59.960 FPS
Color space : YUV
Chroma subsampling : 4:2:0
Bit depth : 8 bits
Scan type : Progressive
Bits/(Pixel*Frame) : 0.074
Stream size : 2.05 GiB (93%)
Color range : Limited
Color primaries : BT.709
Transfer characteristics : BT.709
Matrix coefficients : BT.709
Codec configuration box : avcC

Audio
ID : 2
Format : AAC LC
Codec ID : mp4a-40-2
Duration : 2 h 18 min
Bit rate mode : Constant
Bit rate : 162 kb/s
Channel(s) : 2 channels
Channel layout : L R
Sampling rate : 48.0 kHz
Frame rate : 46.875 FPS
Compression mode : Lossy
Stream size : 161 MiB
Title : Stereo
Default : Yes
Alternate group : 1

Audio
ID : 2
Format : AAC LC
Codec ID : mp4a-40-2
Duration : 2 h 18 min
Bit rate mode : Constant
Bit rate : 162 kb/s
Channel(s) : 2 channels
Channel layout : L R
Sampling rate : 48.0 kHz
Frame rate : 46.875 FPS
Compression mode : Lossy
Stream size : 161 MiB
Title : Stereo
Default : Yes
Alternate group : 1

ICW No Holds Barred

Audio
ID : 2
Format : AAC LC
Codec ID : mp4a-40-2
Duration : 2 h 18 min
Bit rate mode : Constant
Bit rate : 162 kb/s
Channel(s) : 2 channels
Channel layout : L R
Sampling rate : 48.0 kHz
Frame rate : 46.875 FPS
Compression mode : Lossy
Stream size : 161 MiB
Title : Stereo
Default : Yes
Alternate group : 1

 

 

[collapse]

 

 

https://dx-tv.com/

You May Also Like