ICW No Holds Barred Pitfighter X2 2020 Full Show

Watch ICW No Holds Barred Pitfighter X2 2020 Full Show DX-TV

 

ICW No Holds Barred Pitfighter X2

 

 ICW No Holds Barred Pitfighter X2
 


 

 

ICW No Holds Barred Pitfighter X2 2020 Full Show

 

 

Tony Deppen vs. Dominic Garrini

ICW’s ring has no ropes – it’s chains instead – while two of the corners have platforms on the ring post.

A very different setting than these guys are used to, you’d think…

The pair circle each other to start as Deppen finished off clearing the ring… then began to kick Garrini in the quad.

A response from Garrini took Deppen down, before a knuckle lock led to the pair heading to the mat,

where Garrini got the mount. He tries to switch into a cross armbar.

ICW No Holds Barred Pitfighter X2

but Deppen tried to block the hold as he elbowed his way free. Back to their feet,

Deppen throws licks and knees to Deppen’s midsection,

before a wristlock attempt from Deepen was easily broken up with more shots to the guy.

Deppen responds with a double-leg takedown as he fought back with some ground and pound of his own,

before the pair teed off on each other with elbow strikes.

ICW No Holds Barred Pitfighter X2

Complete name : ICW No Holds Barred Pitfighter X2 2020 720p WEB DX-TV.mp4
Format : MPEG-4
Format profile : Base Media
Codec ID : isom
File size : 2.24 GiB
Duration : 1 h 45 min
Overall bit rate : 3 033 kb/s
Movie name : video.m3u8
Writing application : Lavf58.25.100

ICW No Holds Barred Pitfighter X2

Video
ID : 1
Format : AVC
Codec ID : avc1
Codec ID/Info : Advanced
Duration : 1 h 45 min
Bit rate : 2 762 kb/s
Width : 1 280 pixels
Height : 720 pixels
Display aspect ratio : 16:9
Frame rate mode : Variable
 rate : 29.970 FPS
 frame rate : 29.412 FPS 
Color space : YUV
Chroma subsampling : 4:2:0
Bit depth : 8 bits
Scan type : Progressive
Bits/(Pixel*Frame) : 0.100
Stream size : 2.04 GiB (91%)
Codec configuration box : avcC

ICW No Holds Barred Pitfighter X2

Audio
ID : 2
Format : AAC LC
Format/Info : Advanced Audio
Codec ID : mp4a-40-2
Duration : 1 h 45 min
Bit rate mode : Constant
Bit rate : 265 kb/s
Channel(s) : 2 channels
Channel layout : L R
Sampling rate : 48.0 kHz
Frame rate : 46.875 FPS
Compression mode : Lossy
Stream size : 198 MiB (9%)
Default : Yes
Alternate group : 1

 

 

 

 No Holds Barred Pitfighter X2 2020 Full Show

 

 

Watch online

 

 

Server 1

 

 

 

 

watch now

 

 

 

 

Server-2

 

 

 

ICW No Holds Barred Pitfighter X2

 

 

 

 

Server-3

 

 

 

watch now

 

 

 

 

Uploaded By Site DX-TV.com

 

 

Download Links with premium High Speed   

 

 

 

dropapk.to

 

 

 

nitroflare.com

 

 

 

rapidgator.net

 

 

 

uploaded.net

 

 

 

uploadgig.com

 

 

 

 

 

dx-tv.com

 

urlfree.net

Leave a Reply

Your email address will not be published. Required fields are marked *

This site uses Akismet to reduce spam. Learn how your comment data is processed.