ICW 2020 02 02 The 9th Annual Square Go

Watch ICW 2020 02 02 The 9th Annual Square Go 720p DX-TV

 

 

 

 ICW

 

 

 

 

ICW 2020 02 02 The 9th Annual Square Go

 

 

 

 

 

Complete name : ICW.2020.02.02.The.9th.Annual.Square.Go.720p .mp4
Format : MPEG-4
Format profile : Base Media
Codec ID : isom
File size : 1.49 GiB
Duration : 1 h 36 min
Overall bit rate : 2 215 kb/s
Writing application : Lavf57.56.100

Video
ID : 1
Format : AVC
Duration : 1 h 36 min
Bit rate : 2 017 kb/s
Width : 1 280 pixels
Height : 720 pixels
Display aspect ratio : 16:9
Frame rate mode : Constant
Frame rate : 25.000 FPS
Color space : YUV
Chroma subsampling : 4:2:0
Bit depth : 8 bits
Scan type : Progressive
Bits/(Pixel*Frame) : 0.088
Stream size : 1.36 GiB (91%)
Codec configuration box : avcC

Audio
ID : 2
Format : AAC LC
Codec ID : mp4a-40-2
Duration : 1 h 36 min
Bit rate mode : Constant
Bit rate : 192 kb/s
Channel(s) : 2 channels
Channel layout : L R
Sampling rate : 48.0 kHz
Frame rate : 46.875 FPS (1024 SPF)
Compression mode : Lossy
Stream size : 132 MiB (9%)
Default : Yes
Alternate group : 1

Complete name : The 9th Annual Square Go – Part Two – 2nd February 2020 Insane .mp4
Format : MPEG-4
Format profile : Base Media
File size : 1.19 GiB
Duration : 1 h 15 min
Overall bit rate : 2 251 kb/s
Writing application : Lavf57.56.100

Video
ID : 1
Format : AVC
Duration : 1 h 15 min
Bit rate : 2 117 kb/s
Width : 1 280 pixels
Height : 720 pixels
Display aspect ratio : 16:9
Frame rate mode : Variable
Frame rate : 25.000 FPS
Minimum frame rate : 18.750 FPS
Maximum frame rate : 25.000 FPS
Color space : YUV
Chroma subsampling : 4:2:0
Bit depth : 8 bits
Scan type : Progressive
Bits/(Pixel*Frame) : 0.092
Stream size : 1.12 GiB (94%)
Codec configuration box : avcC

Audio
ID : 2
Format : AAC LC
Codec ID : mp4a-40-2
Duration : 1 h 15 min
Bit rate mode : Constant
Bit rate : 128 kb/s
Channel(s) : 2 channels
Channel layout : L R
Sampling rate : 48.0 kHz
Frame rate : 46.875 FPS (1024 SPF)
Compression mode : Lossy
Stream size : 69.5 MiB (6%)
Default : Yes
Alternate group : 1

 

 

Watch online

 

 

 

Server 1

 

 


 

ICW 2020 02 02 The 9th Annual Square Go

 

 

 

Uploaded By Site DX-TV.com

 

 

https://dx-tv.com/wwe-raw-2020-02-03-full-show/

 

 

1fichier.com 

 

earn4files.com

 

 

Download with premium account Links 

 

 

 

nitroflare.com

 

 

rapidgator.net

 

 

uploadgig.com

 

 

 

dx-tv.com