H2O Subterranean Violence Volume 9 2021 04 09 720p

H2O Subterranean Violence Volume 9 2021 04 09 720p DX-TV

H2O Subterranean Violence Volume 9

 H2O Subterranean Violence Volume 9

 

 

 

Download Links with High Speed


 

Dopapk

 

 

Show Links

 

http://shrt10.com/EJ2wFhJ

 

[collapse]

 

 

Nitroflare

 

 

Show Links

 

http://shrt10.com/X77eH

 

[collapse]

 

 

Rapidgator

 

 

Show Links

 

http://shrt10.com/7One4WXnO

 

[collapse]

 

 

Uploaded

 

 

Show Links

 

http://shrt10.com/zgKL5

 

[collapse]

 

 

Watch online

 

Server 1

 

 

 

 

H2O Subterranean Violence

 

 

 

 

Server-2

 

 

 

 

watch now

 

 

 

|Server-3

 

 

 

 

watch now

 

 

Uploaded By Site DX-TV.com

 

 

Show Info This Show

 

 

Complete name : H2O.2021.04.09.Subterranean.Violence.Volume.9.720p.WEB.h264-WRESTLiNGHDD.mp4
Format : MPEG-4
Format profile : Base Media
Codec ID : isom
File size : 1.38 GiB
Duration : 1 h 57 min
Overall bit rate : 1 672 kb/s

H2O Subterranean Violence

Video
ID : 1
Format : AVC
Format/Info : Advanced Video
Duration : 1 h 57 min
Bit rate : 1 536 kb/s
Width : 1 280 pixels
Height : 720 pixels
Display aspect ratio : 16:9
Frame rate mode : Variable
Frame rate : 29.970 (29970/1000) FPS
Minimum frame rate : 29.960 FPS
Maximum frame rate : 29.970 FPS
Color space : YUV
Chroma subsampling : 4:2:0
Bit depth : 8 bits
Scan type : Progressive
Bits/(Pixel*Frame) : 0.056
Stream size : 1.26 GiB (92%)

H2O Subterranean Violence

Audio
ID : 2
Format : AAC LC
Format/Info : Advanced Audio
Codec ID : mp4a-40-2
Duration : 1 h 57 min
Bit rate mode : Constant
Bit rate : 132 kb/s
Channel(s) : 2 channels
Channel layout : L R
Sampling rate : 48.0 kHz
Frame rate : 46.875 FPS (1024 SPF)
Compression mode : Lossy
Stream size : 110 MiB (8%)
Default : Yes
Alternate group : 1

 

H2O Subterranean Violence

 

Audio
ID : 2
Format : AAC LC
Format/Info : Advanced Audio
Codec ID : mp4a-40-2
Duration : 1 h 57 min
Bit rate mode : Constant
Bit rate : 132 kb/s
Channel(s) : 2 channels
Channel layout : L R
Sampling rate : 48.0 kHz
Frame rate : 46.875 FPS (1024 SPF)
Compression mode : Lossy
Stream size : 110 MiB (8%)
Default : Yes
Alternate group : 1

H2O Subterranean Violence

Audio
ID : 2
Format : AAC LC
Format/Info : Advanced Audio
Codec ID : mp4a-40-2
Duration : 1 h 57 min
Bit rate mode : Constant
Bit rate : 132 kb/s
Channel(s) : 2 channels
Channel layout : L R
Sampling rate : 48.0 kHz
Frame rate : 46.875 FPS (1024 SPF)
Compression mode : Lossy
Stream size : 110 MiB (8%)
Default : Yes
Alternate group : 1

[collapse]

 

 

https://dx-tv.com/