Glory 78 Superfight Series 720p Full Show Online Free

Glory 78 Superfight Series 720p Full Show Online Free Replay DX-TV

Glory 78 Superfight Series

 Glory 78 Superfight Series

 

 

 

Download Links with premium High Speed
 

 


 

Dopapk

 

 

Show Links

 

 

https://shrt10.com/UJPT3WQ

 

[collapse]

 

 

 

 

Nitroflare

 

 

Show Links

 

 

https://shrt10.com/MhVwR

 

 

[collapse]

 

 

Rapidgator

 

 

Show Links

 

 

https://shrt10.com/yuqhdtm

 

 

[collapse]

 

 

 

Uploaded
 

 

 

Show Links

 

 

 

 

https://shrt10.com/FWz5YQPEl

 

 

[collapse]

 

 

 

 

 

Watch online

 

Server 1

 

 

 

 

Glory 78 Superfight Series

 

 

 

 

Server-2

 

 

 

 

watch now

 

 

 

|Server-3

 

 

 

 

Glory 78 Superfight Series

 

 

Uploaded By Site DX-TV.com

 

 

Show Info This Show

Glory 78 Superfight Series

 

Complete name : Glory.78.Superfight.Series.720p.WEB.x264 – By DX-TV.com.mp4
Format : MPEG-4
Format profile : Base Media
Codec ID : mp42
File size : 2.23 GiB
Duration : 3 h 0 min
Overall bit rate mode : Variable
Overall bit rate : 1 768 kb/s

Video
ID : 1
Format : AVC
Duration : 3 h 0 min
Bit rate : 1 636 kb/s
Width : 1 280 pixels
Height : 720 pixels
Display aspect ratio : 16:9
Frame rate mode : Constant
Frame rate : 30.000 FPS
Color space : YUV
Chroma subsampling : 4:2:0
Bit depth : 8 bits
Scan type : Progressive
Bits/(Pixel*Frame) : 0.059
Stream size : 2.06 GiB (93%)
Color range : Limited
Color primaries : BT.709
Transfer characteristics : BT.709
Matrix coefficients : BT.709
Codec configuration box : avcC

Glory 78 Superfight Series

 

Audio
ID : 2
Format : AAC LC
Format/Info : Advanced Audio
Codec ID : mp4a-40-2
Duration : 3 h 0 min
Source duration : 3 h 0 min
Bit rate mode : Variable
Bit rate : 128 kb/s
Channel(s) : 2 channels
Channel layout : L R
Sampling rate : 44.1 kHz
Frame rate : 43.066 FPS (1024 SPF)
Compression mode : Lossy
Stream size : 165 MiB (7%)
Source stream size : 165 MiB (7%)
Language : English

Glory 78 Superfight Series

 

 

Date: 20 June 2020
Location: Rotterdam, Netherlands
Place: Rotterdam Ahoy

*The fighting records are shown this way: (Wins- Losses- Draws).
*All the fights are 3 rounds and 3 minutes, except if otherwise is shown.
*All the fights are kickboxing rules, except if otherwise is shown.
*In case the post is a ”results” post, green colour is the winner and the purple colour shows how the win was.
*(CC) means current champion.
*If the names, country, fighting record or anything else is incorrect, please send a message below and we will fix it immediately.

 

Glory 78 Superfight Series

MAIN CARD

Heavyweight (+95KG)
Badr Hari  vs.  Benjamin Adegbuyi

Morocco          Romania
106-14-0        34-6-0

SUPERFIGHT SERIES

 

PRELIMINARY FIGHTS

 

HOW TO WATCH GLORY 78 LIVE

How to watch Glory 78 live?

First of all, Glory makes a clear distinction in every event they organize. Every event is divided in three cards: The Preliminary Fights, Superfight Series and the Main Card.

Best thing to do is of course just buy the ticket and see the event live from beginning till end. Tickets can be bought on their official website: http://www.glorykickboxing.com

The Preliminary Fights will usually be broadcasted live on the Facebook page and YouTube account of Glory Kickboxing. The preliminary fights can be found down below when the event has started.
The Superfight Series are available worldwide on UFC Fight Pass, however Glory also has deals with different TV channels to broadcast it. You can go to the official website of Glory Kickboxing to see if you can watch the Superfight Series on your TV: http://www.glorykickboxing.com

Glory 78 Superfight Series

The Main Card is also available worldwide on UFC Fight Pass, but can also be seen on TV or bought on www.glory.inplayer.com/. For the Main Card Glory also has different deals with each country so there are a bunch of TV channels where you can watch the Main Card from different countries.
You can go to the official website of Glory Kickboxing to see if you can watch the Main Card on your TV: http://www.glorykickboxing.com

PRELIMINARY FIGHTS

 

HOW TO WATCH GLORY 78 LIVE

How to watch Glory 78 live?

First of all, Glory makes a clear distinction in every event they organize. Every event is divided in three cards: The Preliminary Fights, Superfight Series and the Main Card.

Best thing to do is of course just buy the ticket and see the event live from beginning till end. Tickets can be bought on their official website: http://www.glorykickboxing.com

The Preliminary Fights will usually be broadcasted live on the Facebook page and YouTube account of Glory Kickboxing. The preliminary fights can be found down below when the event has started.
The Superfight Series are available worldwide on UFC Fight Pass, however Glory also has deals with different TV channels to broadcast it. You can go to the official website of Glory Kickboxing to see if you can watch the Superfight Series on your TV: http://www.glorykickboxing.com

Glory 78 Superfight Series

The Main Card is also available worldwide on UFC Fight Pass, but can also be seen on TV or bought on www.glory.inplayer.com/. For the Main Card Glory also has different deals with each country so there are a bunch of TV channels where you can watch the Main Card from different countries.
You can go to the official website of Glory Kickboxing to see if you can watch the Main Card on your TV: http://www.glorykickboxing.com

 

[collapse]

 

 

https://dx-tv.com/

1 Comment

Leave a Reply

Your email address will not be published. Required fields are marked *

This site uses Akismet to reduce spam. Learn how your comment data is processed.