Glory 78 PPV Full Show 720p Online Free Replay

Glory 78 PPV 720p Full Show Online Free Replay DX-TV

Glory 78 PPV

 Glory 78 PPV

 

 

 

Download Links with premium High Speed

Dopapk

 

 

Show Links

 

 

https://shrt10.com/ZEXIslY1z
https://shrt10.com/sX7Luv

 

[collapse]

 

 

 

 

Nitroflare

 

 

Show Links

 

 

https://shrt10.com/1y3O1oW5e
https://shrt10.com/lpbuFmS

 

 

[collapse]

 

 

Rapidgator

 

 

Show Links

 

 

https://shrt10.com/85QnkQH
https://shrt10.com/3T8xB

 

 

[collapse]

 

 

 

Uploaded

Show Links

 

 

 

 

https://shrt10.com/8wKQwW
https://shrt10.com/C01tXreCr

 

 

[collapse]

 

 

 

 

 

Watch online

 

Server 1

 

 

 

 

Glory 78 PPV

 

 

 

 

Server-2

 

 

 

 

watch now

 

 

 

|Server-3

 

 

 

 

watch now

 

 

Uploaded By Site DX-TV.com

 

 

Show Info This Show

Glory 78 PPV

 

September 4, 2021 at the Rotterdam Ahoy in Rotterdam, Netherlands.

 

Fight Card:
Heavyweight 120 kg Morocco Badr Hari vs. Poland Arkadiusz Wrzosek
Light Heavyweight 95 kg Brazil Alex Pereira (c) vs. Russia Artem Vakhitov~Light Heavyweight Championship~
Heavyweight 120 kg Morocco Tarik Khbabez vs. Croatia Antonio Plazibat
Heavyweight 120 kg Netherlands Levi Rigters vs. Slovakia Tomas Mozny
Light Heavyweight 95 kg Netherlands Luis Tavares vs. Brazil Felipe Micheletti
Heavyweight 120 kg France Nordine Mahieddine vs. Romania Raul Cătinaș
Welterweight 77 kg Morocco Mohamed Mezouari vs. Turkey Vedat Hoduk

Glory 78 PPV

Complete name : Glory.78.PPV.720p.HDTV.x264-VERUM.mkv
Format : Matroska
Format version : Version 4
File size : 4.45 GiB
Duration : 3 h 27 min
Overall bit rate : 3 079 kb/s

Video
ID : 1
Format : AVC
Format/Info : Advanced Video
Duration : 3 h 27 min
Bit rate : 2 634 kb/s
Width : 1 280 pixels
Height : 720 pixels
Display aspect ratio : 16:9
Frame rate mode : Constant
Frame rate : 50.000 FPS
Color space : YUV
Chroma subsampling : 4:2:0
Bit depth : 8 bits
Scan type : Progressive
Bits/(Pixel*Frame) : 0.057
Stream size : 3.81 GiB (86%)
Forced : No
Color range : Limited
Color primaries : BT.709
Transfer characteristics : BT.709
Matrix coefficients : BT.709

Glory 78 PPV

Audio
ID : 2
Format : MPEG Audio
version : Version 1
Format profile : Layer 2
Format settings : Dual mono
Codec ID : A_MPEG/L2
Codec ID/Hint : MP2
Duration : 3 h 27 min
Bit rate mode : Constant
Bit rate : 384 kb/s
Channel(s) : 2 channels
Sampling rate : 48.0 kHz
Compression mode : Lossy
Stream size : 569 MiB (12%)
Language : English
Default : Yes
Forced : No

Complete name : Glory.78.PPV 480p.HDTV.x264 By DX-TV.com.mp4
Format : MPEG-4
Format profile : Base Media
Codec ID : mp42 (mp42)
File size : 2.29 GiB
Duration : 3 h 27 min
Overall bit rate : 1 582 kb/s

Glory 78 PPV

Video
ID : 1
Format : AVC
Format/Info : Advanced Video
Duration : 3 h 27 min
Bit rate : 1 447 kb/s
Width : 720 pixels
Height : 480 pixels
Display aspect ratio : 3:2
Frame rate mode : Constant
Frame rate : 30.000 FPS
Color space : YUV
Chroma subsampling : 4:2:0
Bit depth : 8 bits
Scan type : Progressive
Bits/(Pixel*Frame) : 0.140
Stream size : 2.09 GiB (91%)
Language : English
Codec configuration box : avc

Glory 78 PPV

Audio
ID : 2
Format : AAC LC
Codec ID : mp4a-40-2
Duration : 3 h 27 min
Bit rate mode : Constant
Bit rate : 128 kb/s
Channel(s) : 2 channels
Channel layout : L R
Sampling rate : 44.1 kHz
Frame rate : 43.066 FPS (1024 SPF)
Compression mode : Lossy
Stream size : 190 MiB (8%)
Title : Stereo
Language : English
Default : Yes
Alternate group : 1

 

Audio
ID : 2
Format : MPEG Audio
version : Version 1
Format profile : Layer 2
Format settings : Dual mono
Codec ID : A_MPEG/L2
Codec ID/Hint : MP2
Duration : 3 h 27 min
Bit rate mode : Constant
Bit rate : 384 kb/s
Channel(s) : 2 channels
Sampling rate : 48.0 kHz
Compression mode : Lossy
Stream size : 569 MiB (12%)
Language : English
Default : Yes
Forced : No

Complete name : Glory.78.PPV 480p.HDTV.x264 By DX-TV.com.mp4
Format : MPEG-4
Format profile : Base Media
Codec ID : mp42 (mp42)
File size : 2.29 GiB
Duration : 3 h 27 min
Overall bit rate : 1 582 kb/s

Glory 78 PPV

Video
ID : 1
Format : AVC
Format/Info : Advanced Video
Duration : 3 h 27 min
Bit rate : 1 447 kb/s
Width : 720 pixels
Height : 480 pixels
Display aspect ratio : 3:2
Frame rate mode : Constant
Frame rate : 30.000 FPS
Color space : YUV
Chroma subsampling : 4:2:0
Bit depth : 8 bits
Scan type : Progressive
Bits/(Pixel*Frame) : 0.140
Stream size : 2.09 GiB (91%)
Language : English
Codec configuration box : avc

Glory 78 PPV

Audio
ID : 2
Format : AAC LC
Codec ID : mp4a-40-2
Duration : 3 h 27 min
Bit rate mode : Constant
Bit rate : 128 kb/s
Channel(s) : 2 channels
Channel layout : L R
Sampling rate : 44.1 kHz
Frame rate : 43.066 FPS (1024 SPF)
Compression mode : Lossy
Stream size : 190 MiB (8%)
Title : Stereo
Language : English
Default : Yes
Alternate group : 1

 

Audio
ID : 2
Format : MPEG Audio
version : Version 1
Format profile : Layer 2
Format settings : Dual mono
Codec ID : A_MPEG/L2
Codec ID/Hint : MP2
Duration : 3 h 27 min
Bit rate mode : Constant
Bit rate : 384 kb/s
Channel(s) : 2 channels
Sampling rate : 48.0 kHz
Compression mode : Lossy
Stream size : 569 MiB (12%)
Language : English
Default : Yes
Forced : No

Complete name : Glory.78.PPV 480p.HDTV.x264 By DX-TV.com.mp4
Format : MPEG-4
Format profile : Base Media
Codec ID : mp42 (mp42)
File size : 2.29 GiB
Duration : 3 h 27 min
Overall bit rate : 1 582 kb/s

Glory 78 PPV

Video
ID : 1
Format : AVC
Format/Info : Advanced Video
Duration : 3 h 27 min
Bit rate : 1 447 kb/s
Width : 720 pixels
Height : 480 pixels
Display aspect ratio : 3:2
Frame rate mode : Constant
Frame rate : 30.000 FPS
Color space : YUV
Chroma subsampling : 4:2:0
Bit depth : 8 bits
Scan type : Progressive
Bits/(Pixel*Frame) : 0.140
Stream size : 2.09 GiB (91%)
Language : English
Codec configuration box : avc

Glory 78 PPV

Audio
ID : 2
Format : AAC LC
Codec ID : mp4a-40-2
Duration : 3 h 27 min
Bit rate mode : Constant
Bit rate : 128 kb/s
Channel(s) : 2 channels
Channel layout : L R
Sampling rate : 44.1 kHz
Frame rate : 43.066 FPS (1024 SPF)
Compression mode : Lossy
Stream size : 190 MiB (8%)
Title : Stereo
Language : English
Default : Yes
Alternate group : 1

 

Audio
ID : 2
Format : MPEG Audio
version : Version 1
Format profile : Layer 2
Format settings : Dual mono
Codec ID : A_MPEG/L2
Codec ID/Hint : MP2
Duration : 3 h 27 min
Bit rate mode : Constant
Bit rate : 384 kb/s
Channel(s) : 2 channels
Sampling rate : 48.0 kHz
Compression mode : Lossy
Stream size : 569 MiB (12%)
Language : English
Default : Yes
Forced : No

Complete name : Glory.78.PPV 480p.HDTV.x264 By DX-TV.com.mp4
Format : MPEG-4
Format profile : Base Media
Codec ID : mp42 (mp42)
File size : 2.29 GiB
Duration : 3 h 27 min
Overall bit rate : 1 582 kb/s

Glory 78 PPV

Video
ID : 1
Format : AVC
Format/Info : Advanced Video
Duration : 3 h 27 min
Bit rate : 1 447 kb/s
Width : 720 pixels
Height : 480 pixels
Display aspect ratio : 3:2
Frame rate mode : Constant
Frame rate : 30.000 FPS
Color space : YUV
Chroma subsampling : 4:2:0
Bit depth : 8 bits
Scan type : Progressive
Bits/(Pixel*Frame) : 0.140
Stream size : 2.09 GiB (91%)
Language : English
Codec configuration box : avc

Glory 78 PPV

Audio
ID : 2
Format : AAC LC
Codec ID : mp4a-40-2
Duration : 3 h 27 min
Bit rate mode : Constant
Bit rate : 128 kb/s
Channel(s) : 2 channels
Channel layout : L R
Sampling rate : 44.1 kHz
Frame rate : 43.066 FPS (1024 SPF)
Compression mode : Lossy
Stream size : 190 MiB (8%)
Title : Stereo
Language : English
Default : Yes
Alternate group : 1

 

Audio
ID : 2
Format : MPEG Audio
version : Version 1
Format profile : Layer 2
Format settings : Dual mono
Codec ID : A_MPEG/L2
Codec ID/Hint : MP2
Duration : 3 h 27 min
Bit rate mode : Constant
Bit rate : 384 kb/s
Channel(s) : 2 channels
Sampling rate : 48.0 kHz
Compression mode : Lossy
Stream size : 569 MiB (12%)
Language : English
Default : Yes
Forced : No

Complete name : Glory.78.PPV 480p.HDTV.x264 By DX-TV.com.mp4
Format : MPEG-4
Format profile : Base Media
Codec ID : mp42 (mp42)
File size : 2.29 GiB
Duration : 3 h 27 min
Overall bit rate : 1 582 kb/s

Glory 78 PPV

Video
ID : 1
Format : AVC
Format/Info : Advanced Video
Duration : 3 h 27 min
Bit rate : 1 447 kb/s
Width : 720 pixels
Height : 480 pixels
Display aspect ratio : 3:2
Frame rate mode : Constant
Frame rate : 30.000 FPS
Color space : YUV
Chroma subsampling : 4:2:0
Bit depth : 8 bits
Scan type : Progressive
Bits/(Pixel*Frame) : 0.140
Stream size : 2.09 GiB (91%)
Language : English
Codec configuration box : avc

Glory 78 PPV

Audio
ID : 2
Format : AAC LC
Codec ID : mp4a-40-2
Duration : 3 h 27 min
Bit rate mode : Constant
Bit rate : 128 kb/s
Channel(s) : 2 channels
Channel layout : L R
Sampling rate : 44.1 kHz
Frame rate : 43.066 FPS (1024 SPF)
Compression mode : Lossy
Stream size : 190 MiB (8%)
Title : Stereo
Language : English
Default : Yes
Alternate group : 1

 

Audio
ID : 2
Format : MPEG Audio
version : Version 1
Format profile : Layer 2
Format settings : Dual mono
Codec ID : A_MPEG/L2
Codec ID/Hint : MP2
Duration : 3 h 27 min
Bit rate mode : Constant
Bit rate : 384 kb/s
Channel(s) : 2 channels
Sampling rate : 48.0 kHz
Compression mode : Lossy
Stream size : 569 MiB (12%)
Language : English
Default : Yes
Forced : No

Complete name : Glory.78.PPV 480p.HDTV.x264 By DX-TV.com.mp4
Format : MPEG-4
Format profile : Base Media
Codec ID : mp42 (mp42)
File size : 2.29 GiB
Duration : 3 h 27 min
Overall bit rate : 1 582 kb/s

Glory 78 PPV

Video
ID : 1
Format : AVC
Format/Info : Advanced Video
Duration : 3 h 27 min
Bit rate : 1 447 kb/s
Width : 720 pixels
Height : 480 pixels
Display aspect ratio : 3:2
Frame rate mode : Constant
Frame rate : 30.000 FPS
Color space : YUV
Chroma subsampling : 4:2:0
Bit depth : 8 bits
Scan type : Progressive
Bits/(Pixel*Frame) : 0.140
Stream size : 2.09 GiB (91%)
Language : English
Codec configuration box : avc

Glory 78 PPV

Audio
ID : 2
Format : AAC LC
Codec ID : mp4a-40-2
Duration : 3 h 27 min
Bit rate mode : Constant
Bit rate : 128 kb/s
Channel(s) : 2 channels
Channel layout : L R
Sampling rate : 44.1 kHz
Frame rate : 43.066 FPS (1024 SPF)
Compression mode : Lossy
Stream size : 190 MiB (8%)
Title : Stereo
Language : English
Default : Yes
Alternate group : 1

 

 

 

 

 

 

[collapse]

 

 

https://dx-tv.com/

1 Comment

Leave a Reply

Your email address will not be published. Required fields are marked *

This site uses Akismet to reduce spam. Learn how your comment data is processed.