Glory 78 PPV 1080p Full Show Online Free Replay

Glory 78 PPV 1080p Full Show Online Free Replay DX-TV

Glory 78

 Glory 78

 

 

 

Download Links with premium High Speed
 


Dopapk

 

 

Show Links

 

 

https://shrt10.com/svqPyeslq

 

[collapse]

 

 

 

 

Nitroflare

 

 

Show Links

 

 

https://shrt10.com/J14OB

 

 

[collapse]

 

 

Rapidgator

 

 

Show Links

 

 

https://shrt10.com/rom5p8iRe

 

 

[collapse]

 

 

 

Uploaded
 

 

Show Links

 

 

 

 

 

 

[collapse]

 

 

 

 

 

Watch online

 

Server 1

 

 

 

 

Glory 78 PPV

 

 

 

 

Server-2

 

 

 

 

watch now

 

 

 

|Server-3

 

 

 

 

watch now

 

 

Uploaded By Site DX-TV.com

 

 

Show Info This Show

 

Glory 78

Complete name : Glory.78.PPV.1080p.HDTV.x264-VERUM.mkv
Format : Matroska
Format version : Version 4
File size : 10.7 GiB
Duration : 3 h 26 min
Overall bit rate : 7 388 kb/s

Video
ID : 1
Format : AVC
Format/Info : Advanced Video
Duration : 3 h 26 min
Bit rate : 7 001 kb/s
Width : 1 920 pixels
Height : 1 080 pixels
Display aspect ratio : 16:9
Frame rate mode : Constant
Frame rate : 50.000 FPS
Color space : YUV
Chroma subsampling : 4:2:0
Bit depth : 8 bits
Scan type : Progressive
Bits/(Pixel*Frame) : 0.068
Stream size : 10.1 GiB (95%)
Forced : No
Color range : Limited
Color primaries : BT.709
Transfer characteristics : BT.709
Matrix coefficients : BT.709

Glory 78

Audio
ID : 2
Format : MPEG Audio
version : Version 1
Format profile : Layer 2
Format settings : Dual mono
Codec ID : A_MPEG/L2
Codec ID/Hint : MP2
Duration : 3 h 26 min
Bit rate mode : Constant
Bit rate : 384 kb/s
Channel(s) : 2 channels
Sampling rate : 48.0 kHz
Frame rate : 41.667 FPS (1152 SPF)
Compression mode : Lossy
Stream size : 569 MiB (5%)
Language : English
Default : Yes
Forced : No

Glory 78

 

September 4, 2021 at the Rotterdam Ahoy in Rotterdam, Netherlands.

 

Fight Card:

Heavyweight 120 kg Morocco Badr Hari vs. Poland Arkadiusz Wrzosek
Light Heavyweight 95 kg Brazil Alex Pereira (c) vs. Russia Artem Vakhitov~Light Heavyweight Championship~
Heavyweight 120 kg Morocco Tarik Khbabez vs. Croatia Antonio Plazibat
Heavyweight 120 kg Netherlands Levi Rigters vs. Slovakia Tomas Mozny
Light Heavyweight 95 kg Netherlands Luis Tavares vs. Brazil Felipe Micheletti
Heavyweight 120 kg France Nordine Mahieddine vs. Romania Raul Cătinaș
Welterweight 77 kg Morocco Mohamed Mezouari vs. Turkey Vedat Hoduk

 

Complete name : Glory.78.PPV.1080p.HDTV.x264-VERUM.mkv
Format : Matroska
Format version : Version 4
File size : 10.7 GiB
Duration : 3 h 26 min
Overall bit rate : 7 388 kb/s

Video
ID : 1
Format : AVC
Format/Info : Advanced Video
Duration : 3 h 26 min
Bit rate : 7 001 kb/s
Width : 1 920 pixels
Height : 1 080 pixels
Display aspect ratio : 16:9
Frame rate mode : Constant
Frame rate : 50.000 FPS
Color space : YUV
Chroma subsampling : 4:2:0
Bit depth : 8 bits
Scan type : Progressive
Bits/(Pixel*Frame) : 0.068
Stream size : 10.1 GiB (95%)
Forced : No
Color range : Limited
Color primaries : BT.709
Transfer characteristics : BT.709
Matrix coefficients : BT.709

Glory 78

Audio
ID : 2
Format : MPEG Audio
version : Version 1
Format profile : Layer 2
Format settings : Dual mono
Codec ID : A_MPEG/L2
Codec ID/Hint : MP2
Duration : 3 h 26 min
Bit rate mode : Constant
Bit rate : 384 kb/s
Channel(s) : 2 channels
Sampling rate : 48.0 kHz
Frame rate : 41.667 FPS (1152 SPF)
Compression mode : Lossy
Stream size : 569 MiB (5%)
Language : English
Default : Yes
Forced : No

Complete name : Glory.78.PPV.1080p.HDTV.x264-VERUM.mkv
Format : Matroska
Format version : Version 4
File size : 10.7 GiB
Duration : 3 h 26 min
Overall bit rate : 7 388 kb/s

Video
ID : 1
Format : AVC
Format/Info : Advanced Video
Duration : 3 h 26 min
Bit rate : 7 001 kb/s
Width : 1 920 pixels
Height : 1 080 pixels
Display aspect ratio : 16:9
Frame rate mode : Constant
Frame rate : 50.000 FPS
Color space : YUV
Chroma subsampling : 4:2:0
Bit depth : 8 bits
Scan type : Progressive
Bits/(Pixel*Frame) : 0.068
Stream size : 10.1 GiB (95%)
Forced : No
Color range : Limited
Color primaries : BT.709
Transfer characteristics : BT.709
Matrix coefficients : BT.709

Glory 78

Audio
ID : 2
Format : MPEG Audio
version : Version 1
Format profile : Layer 2
Format settings : Dual mono
Codec ID : A_MPEG/L2
Codec ID/Hint : MP2
Duration : 3 h 26 min
Bit rate mode : Constant
Bit rate : 384 kb/s
Channel(s) : 2 channels
Sampling rate : 48.0 kHz
Frame rate : 41.667 FPS (1152 SPF)
Compression mode : Lossy
Stream size : 569 MiB (5%)
Language : English
Default : Yes
Forced : No

 

[collapse]

 

 

https://dx-tv.com/

1 Comment

Leave a Reply

Your email address will not be published. Required fields are marked *

This site uses Akismet to reduce spam. Learn how your comment data is processed.