Glory 61 Super Fight Series 720p WEB SF63

Glory 61 Super Fight Series 720p WEB SF63

 

 

 

 


 

 

dx-tv.com

 

 

 

 

 
Complete name : Glory.61.SuperFight.Series.VanNostrand.vs.Glunder.720p.WEB.h264-SF63.mp4
Format : MPEG-4
Format profile : Base Media
File size : 3.56 GiB
Duration : 1 h 55 min
Overall bit rate mode : Variable
Overall bit rate : 4 401 kb/s
Writing application : Lavf56.40.101

Video
ID : 1
Format : AVC
Format/Info : Advanced Video Codec
Codec ID/Info : Advanced Video Coding
Duration : 1 h 55 min
Bit rate : 4 267 kb/s
Width : 1 280 pixels
Height : 720 pixels
Display aspect ratio : 16:9
Frame rate mode : Constant
Frame rate : 29.970 (30000/1001) FPS
Original frame rate : 29.970 (29970/1000) FPS
Color space : YUV
Chroma subsampling : 4:2:0
Bit depth : 8 bits
Scan type : Progressive
Bits/(Pixel*Frame) : 0.154
Stream size : 3.45 GiB (97%)

Audio
ID : 2
Format : AAC
Format/Info : Advanced Audio Codec
Format profile : LC
Codec ID : mp4a-40-2
Duration : 1 h 55 min
Bit rate mode : Variable
Bit rate : 126 kb/s
Maximum bit rate : 131 kb/s
Channel(s) : 2 channels
Channel positions : Front: L R
Sampling rate : 44.1 kHz
Frame rate : 43.066 FPS (1024 SPF)
Compression mode : Lossy
Stream size : 104 MiB (3%)
Default : Yes
Alternate group : 1

 

 

 

Glory 61 Super Fight Series 720p WEB SF63

 

 

 

 

Watch online

 

 

Waiting finish converting video

 

 

Server 1

 

 

 

 

 

 

 

 

 

 

 

 

 

 

 

Server 2

 

 

 

 

 

 

 


 

 

 

 

 

Uploaded By Site DX-TV.com

 

 

 

open rar file to see this password

 

 

 

 

The password : DX-TV.com

 

 

 

 

Uploaded.net + rapidgator.net

 

 

 

 

 

http://shrt10.com/sEsvo3v6

 

 

http://shrt10.com/XC85Y4
 

 

Glory 61 Super Fight Series 720p WEB SF63

Leave a Reply

This site uses Akismet to reduce spam. Learn how your comment data is processed.