Glory 59 Super Fight Series 720p WEB DL

Glory 59 Super Fight Series 720p WEB DL

 

 

 

 


 

 

 

dx-tv.com

 

 

 

 

 

 

Complete name : Glory.59.Super.Fight.Series.720p.WEB-DL.mp4
Format : MPEG-4
Format profile : Base Media
File size : 3.76 GiB
Duration : 2 h 1 min
Overall bit rate : 4 413 kb/s
Writing application : Lavf58.18.102

Video
ID : 1
Format : AVC
Format/Info : Advanced Video Codec
Codec ID/Info : Advanced Video Coding
Duration : 2 h 1 min
Bit rate : 4 278 kb/s
Width : 1 280 pixels
Height : 720 pixels
Display aspect ratio : 16:9
Frame rate mode : Constant
Frame rate : 29.970
Original frame rate : 29.970 (29970/1000) FPS
Color space : YUV
Chroma subsampling : 4:2:0
Bit depth : 8 bits
Scan type : Progressive
Bits/(Pixel*Frame) : 0.155
Stream size : 3.64 GiB (97%)

Audio
ID : 2
Format : AAC
Format/Info : Advanced Audio Codec
Format profile : LC
Codec ID : mp4a-40-2
Duration : 2 h 1 min
Bit rate mode : Constant
Bit rate : 126 kb/s
Channel(s) : 2 channels
Channel positions : Front: L R
Sampling rate : 44.1 kHz
Frame rate : 43.066 FPS (1024 SPF)
Compression mode : Lossy
Stream size : 110 MiB (3%)
Default : Yes
Alternate group : 1

 

 

 

 

 

Glory 59 Super Fight Series 720p WEB DL

 

 

 

 

Watch online

 

 

Waiting finish converting video

 

 

Server 1

 

 

 

 

 

 

 

 

 

 

 

 

 

 

 

Server 2

 

 

 

 

 

 

 

 

 

 

 

 

 

 

Uploaded By Site DX-TV.com

 

 

 

open rar file to see this password

 

 

 

 

The password : DX-TV.com

 

 

 

 

Uploaded.net + rapidgator.net

 

 

 

 

 

 

 

http://shrt10.com/2EFG9sbw

 

 

 

 

 

 

http://shrt10.com/8NHLl7
 

 

 

 

 

 

 

 

Glory 59 Super Fight Series 720p WEB DL