GCW Just Being Honest 2020-01-24 Online 720p

GCW Just Being Honest 2020-01-24 720p Online DX-TV

 

 

WWE Raw

 

 

 

 

dx-tv.com

 

 

 

 

GCW Just Being Honest 2020-01-24 Online 720p

 

 

 

 

 

Complete name : GCW Just Being Honest 2020-01-25 720p WEB x264 DX-TV.mp4
Format : MPEG-4
Format profile : Base Media
Codec ID : isom
File size : 4.41 GiB
Duration : 3 h 19 min
Overall bit rate : 3 171 kb/s
Encoded date : UTC 2020-01-25 07:26:30
Tagged date : UTC 2020-01-25 07:26:30
Writing application : Lavf58.25.100

Video
ID : 1
Format : AVC
Duration : 3 h 19 min
Bit rate : 3 000 kb/s
Width : 1 280 pixels
Height : 720 pixels
Display aspect ratio : 16:9
Frame rate mode : Variable
Frame rate : 29.970 (30000/1001) FPS
Minimum frame rate : 29.412 FPS
Maximum frame rate : 30.303 FPS
Color space : YUV
Chroma subsampling : 4:2:0
Bit depth : 8 bits
Scan type : Progressive
Bits/(Pixel*Frame) : 0.109
Stream size : 4.17 GiB (95%)
Encoded date : UTC 2020-01-25 07:26:30
Tagged date : UTC 2020-01-25 07:26:30
Codec configuration box : avcC

Audio
ID : 2
Format : AAC LC
Format/Info : Advanced Audio Codec Low Complexity
Codec ID : mp4a-40-2
Duration : 3 h 19 min
Bit rate mode : Constant
Bit rate : 160 kb/s
Channel(s) : 2 channels
Channel layout : L R
Sampling rate : 44.1 kHz
Frame rate : 43.066 FPS (1024 SPF)
Compression mode : Lossy
Stream size : 229 MiB (5%)
Title : Track1
Default : Yes
Alternate group : 1

 

 

Watch online

 

 

Waiting finish converting video

 

 

Server 1

 

 

 

watch now

 

 

 

 

GCW Just Being Honest 2020-01-24 Online 720p

 

 

 

Uploaded By Site DX-TV.com

 

 

 

 

 

Download VIP Members FTP server Download 1 Link and Free Links 

 

 

 

Limited Time will be removed after 90 days if you need available again pm email admin

 

[member]
 

 

FTP Link Download high speed

[/member]
 

1fichier.com 

 

 

 

dl.free.fr

 

 

earn4files.com

 

 

filerio.in

 

 

 

Download with premium account Links 

 

 

nitroflare.com

 

 

rapidgator.net

 

 

uploaded.net

 

 

 

 

 

You May Also Like