GCW Josh Barnetts Bloodsport 3 Free online 2020 10 11 720p

Watch GCW Josh Barnetts Bloodsport 3 Full show online 2020 10 11 720p DX-TV

 

GCW Josh Barnetts Bloodsport 3

 

GCW Josh Barnetts Bloodsport 3
 


 

 

GCW Josh Barnetts Bloodsport 3 Free online 2020 10 11 720p

 

 

Name of the event: GCW Josh Barnett’s Bloodsport 3
Date: 11.10.2020
Promotion: Game Changer Wrestling
Type: Pay Per View
Location: Indianapolis, Indiana, USA
Arena: Marion County Fairgrounds
Broadcast type: Live
Broadcast date: 11.09.2020
TV station/network: FITE TV

GCW Josh Barnetts Bloodsport 3

:::: Not recommended yet. ::::
Singles Match
Simon Grimm defeats Matt Makowski (8:31)
:::: Not enough votes for total rating. ::::
Women’s Tournament Semi Final Match
Allysin Kay defeats Killer Kelly (12:19)
:::: Not eligible for the match guide: match 
Women’s Tournament Semi Final Match
Lindsay Snow defeats Leyla Hirsch (4:28)
:::: Not enough votes for total rating. ::::
Singles Match
Calvin Tankman defeats Alexander James by KO (6:40)
:::: Not recommended yet. ::::
Singles Match
Erik Hammer defeats Kal Jak (7:36)
:::: Not enough votes for total rating. ::::
Singles Match
Tom Lawlor defeats Homicide (8:46)
:::: Not enough votes for total rating. ::::
Singles Match
Davey Boy Smith Jr. defeats Josh Alexander (5:01)
:::: Not enough votes for total rating. ::::
Women’s Tournament Final Match
Lindsay Snow defeats Allysin Kay (5:26)
:::: Not enough votes for total rating. ::::
Singles Match
Jon Moxley defeats Chris Dickinson (14:42)

GCW Josh Barnetts Bloodsport 3

Complete name : GCW.2020.10.11.Josh.Barnetts.Bloodsport.3.720p.WEB.h264-HEEL.mp4
Format : MPEG-4
Format profile : Base Media
Codec ID : isom
File size : 1.93 GiB
Duration : 2 h 17 min
Overall bit rate : 2 019 kb/s
application : Lavf58.32.104

 Josh Barnetts Bloodsport 3

Video
ID : 1
Format : AVC
Duration : 2 h 17 min
Bit rate : 1 914 kb/s
Width : 1 280 pixels
Height : 720 pixels
Display aspect ratio : 16:9
Frame rate mode : Variable
 rate : 29.916 FPS
 frame rate : 5.988 FPS
 ate : 30.303 FPS
Color space : YUV
Chroma : 4:2:0
Bit depth : 8 bits
Scan type : Progressive
Bits/(Pixel*Frame) : 0.069
Stream size : 1.83 GiB (95%)
Codec configuration box : avcC

GCW  Barnetts Bloodsport 3

Audio
ID : 2
Format : AAC LC
Format/Info : Advanced Audio
Codec ID : mp4a-40-2
Duration : 2 h 17 min
Bit rate mode : Constant
Bit rate : 96.0 kb/s
Channel(s) : 2 channels
Channel layout : L R
Sampling rate : 48.0 kHz
Frame rate : 46.875 FPS (1024 SPF)
Compression mode : Lossy
Stream size : 92.9 MiB (5%)
Default : Yes
Alternate group : 1

 

 

 

GCW  Barnetts Bloodsport 3 Free online 2020 10 11 720p

 

 

Watch online

 

 

 

Server 1

 

 

 

 

watch now

 

 

 

 

Server-2

 

 

 

GCW Josh Barnetts Bloodsport 3

 

 

 

 

Server-3

 

 

 

watch now

 

 

 

 

Uploaded By Site DX-TV.com

 

 

 

 

Download Free Links with normal and high Speed [ more 14 hosts ]  

 

 

 

 

http://shrt10.com/6ik5dcy
http://shrt10.com/0Vujn
http://shrt10.com/IPdYZXsMZ
http://shrt10.com/JKLfV
http://shrt10.com/pSQrzrx6C
http://shrt10.com/IEZy3
http://shrt10.com/QmUOQb
http://shrt10.com/hXsDsN
http://shrt10.com/kImag
http://shrt10.com/TChuac
http://shrt10.com/FTlaD4ta
http://shrt10.com/ReSp51

 

 

 

Download Links with premium High Speed   

 

 

 

 

dropapk.to

 

 

 

nitroflare.com

 

 

 

rapidgator.net

 

 

 

uploaded.net

 

 

 

uploadgig.com

 

 

 

 

 

dx-tv.com

 

urlfree.net

Leave a Reply

Your email address will not be published. Required fields are marked *

This site uses Akismet to reduce spam. Learn how your comment data is processed.