GCW Jimmy Lloyds D-Generation F 2021 Full Show Online

GCW Jimmy Lloyds D-Generation F 2021 Full Show Online DX-TV

GCW Jimmy Lloyds D-Generation F

 GCW Jimmy Lloyds D-Generation F

 

 

 

Download Links with High Speed


Dopapk

 

 

Show Links

 

http://shrt10.com/WZez2jq7

 

[collapse]

 

 

Nitroflare

 

 

Show Links

 

http://shrt10.com/y47iOw0i

 

[collapse]

 

 

Rapidgator

 

 

Show Links

 

http://shrt10.com/FVpjO

 

[collapse]

 

 

Uploaded

 

 

Show Links

 

http://shrt10.com/WD6zub

 

[collapse]

 

 

Watch online

Server 1

 

 

 

 

watch now

 

 

 

 

Server-2

 

 

 

 

GCW Jimmy Lloyds D-Generation F

 

 

 

|Server-3

 

 

 

 

watch now

 

 

Uploaded By Site DX-TV.com

 

 

Show Info This Show

 

 

Complete name : GCW Jimmy Lloyds D-Generation F 2021.mp4
Format : MPEG-4
Format profile : Base Media
Codec ID : isom
File size : 2.26 GiB
Duration : 2 h 49 min
Overall bit rate : 1 900 kb/s

GCW Jimmy Lloyds D-Generation

Video
ID : 1
Format : AVC
Format/Info : Advanced Video
Duration : 2 h 49 min
Source duration : 2 h 49 min
Bit rate : 1 793 kb/s
Width : 1 280 pixels
Height : 720 pixels
Display aspect ratio : 16:9
Frame rate mode : Variable
Frame rate : 29.970 FPS
Minimum frame rate : 14.925 FPS
Maximum frame rate : 30.303 FPS
Color space : YUV
Chroma subsampling : 4:2:0
Bit depth : 8 bits
Scan type : Progressive
Bits/(Pixel*Frame) : 0.065
Stream size : 2.13 GiB
mdhd_Duration : 10198321
Codec configuration box : avc

GCW Jimmy Lloyds 

Audio
ID : 2
Format : AAC LC
Format/Info : Advanced Audio
Codec ID : mp4a-40-2
Duration : 2 h 49 min
Bit rate mode : Constant
Bit rate : 96.0 kb/s
Channel(s) : 2 channels
Channel layout : L R
Sampling rate : 48.0 kHz
Frame rate : 46.875 FPS (1024 SPF)
Compression mode : Lossy
Stream size : 117 MiB (5%)
Default : Yes
Alternate group : 1

 

Audio
ID : 2
Format : AAC LC
Format/Info : Advanced Audio
Codec ID : mp4a-40-2
Duration : 2 h 49 min
Bit rate mode : Constant
Bit rate : 96.0 kb/s
Channel(s) : 2 channels
Channel layout : L R
Sampling rate : 48.0 kHz
Frame rate : 46.875 FPS (1024 SPF)
Compression mode : Lossy
Stream size : 117 MiB (5%)
Default : Yes
Alternate group : 1

GCW Jimmy Lloyds 

Audio
ID : 2
Format : AAC LC
Format/Info : Advanced Audio
Codec ID : mp4a-40-2
Duration : 2 h 49 min
Bit rate mode : Constant
Bit rate : 96.0 kb/s
Channel(s) : 2 channels
Channel layout : L R
Sampling rate : 48.0 kHz
Frame rate : 46.875 FPS (1024 SPF)
Compression mode : Lossy
Stream size : 117 MiB (5%)
Default : Yes
Alternate group : 1

 

Audio
ID : 2
Format : AAC LC
Format/Info : Advanced Audio
Codec ID : mp4a-40-2
Duration : 2 h 49 min
Bit rate mode : Constant
Bit rate : 96.0 kb/s
Channel(s) : 2 channels
Channel layout : L R
Sampling rate : 48.0 kHz
Frame rate : 46.875 FPS (1024 SPF)
Compression mode : Lossy
Stream size : 117 MiB (5%)
Default : Yes
Alternate group : 1

 

GCW Jimmy Lloyds 

 

[collapse]

 

 

https://dx-tv.com/

You May Also Like